Главная » Разное » Живой спектакль Наруто / Live Spectacle Naruto (2015) WEBRip 720p | Flarrow Films

Живой спектакль Наруто / Live Spectacle Naruto (2015) WEBRip 720p | Flarrow Films

СКАЧАТЬ TORRENT ФАЙЛ

Информация о фильме
Название: Живой спектакль Наруто
Оригинальное название: Live Spectacle Naruto
Год выхода: 2015
Жанр: спектакль, боевые искусства
Режиссер: Акико Кодама (Akiko Kodama)
В ролях: Kōdai Matsuoka, Ryūji Satō, Yui Itō, Kenta Suga, Yūki Kimisawa, Kazuhiro Imagawa, Hidekazu Ichinose, Tatsunari Kimura, Asahi Uchida, Miho Imamura, Anju Inami, Tsubasa Hattori, Ryō Katō, Yūta Iiyama, Shinichirō Ueda, Saki Takahashi, Yoshiaki Umegaki, Yoshiaki Umegaki

О фильме:
Это история, в которой рассказывается про мальчика-ниндзя. Он мечтает стать Хокаге: главой своей деревни. Но Хокаге – это самый мудрый и сильный ниндзя деревни, поэтому парень попытается преодолеть кучу испытаний, победить множество противников, заслужить уважение, подрасти морально и физически.

Страна: Япония
Продолжительность: ~ 02:25:25
Перевод: Любительский (многоголосый, закадровый) | Flarrow Films

Файл
Формат: MKV
Кодек: MPEG-4 AVC
Качество: WEBRip 1080p
Видео: 1280×720, 3918 kb/s, ~ 29.970 FPS, 10 bits
Звук: AAC, 298 kb/s, 2 channels, 48.0 kHz
Субтитры: отсутствуют

Скриншоты

MediaInfo
General
Unique ID : 30387259550979062361325457810951322071 (0x16DC5F9139A2B3956681270074E539D7)
Complete name : D:DownloadsMoviesLive.Spectacle.Naruto.WEBRip.72Op.Flarrow.Films.FREE-TOR.mkv
Format : Matroska
Format version : Version 4 / Version 2
File size : 4.29 GiB
Duration : 2 h 25 min
Overall bit rate : 4 219 kb/s
Encoded date : UTC 2018-05-21 15:40:09
Writing application : mkvmerge v21.0.0 ('Tardigrades Will Inherit The Earth') 64-bit
Writing library : libebml v1.3.5 + libmatroska v1.4.8

Video
ID : 1
Format : AVC
Format/Info : Advanced Video Codec
Format profile : High 10@L4.1
Format settings : CABAC / 9 Ref Frames
Format settings, CABAC : Yes
Format settings, ReFrames : 9 frames
Codec ID : V_MPEG4/ISO/AVC
Duration : 2 h 25 min
Bit rate : 3 918 kb/s
Width : 1 280 pixels
Height : 720 pixels
Display aspect ratio : 16:9
Frame rate mode : Constant
Frame rate : 29.970 (30000/1001) FPS
Color space : YUV
Chroma subsampling : 4:2:0
Bit depth : 10 bits
Scan type : Progressive
Bits/(Pixel*Frame) : 0.142
Stream size : 3.98 GiB (93%)
Writing library : x264 core 150 r2833kMod df79067
Encoding settings : cabac=1 / ref=9 / deblock=1:-1:-1 / analyse=0x3:0x133 / me=umh / subme=10 / psy=1 / fade_compensate=0.00 / psy_rd=1.00:0.00 / mixed_ref=1 / me_range=24 / chroma_me=1 / trellis=2 / 8x8dct=1 / cqm=0 / deadzone=21,11 / fast_pskip=1 / chroma_qp_offset=-2 / threads=12 / lookahead_threads=2 / sliced_threads=0 / nr=0 / decimate=0 / interlaced=0 / bluray_compat=0 / constrained_intra=0 / bframes=8 / b_pyramid=2 / b_adapt=2 / b_bias=0 / direct=3 / weightb=1 / open_gop=0 / weightp=2 / keyint=250 / keyint_min=25 / scenecut=40 / intra_refresh=0 / rc_lookahead=60 / rc=crf / mbtree=1 / crf=17.5000 / qcomp=0.65 / qpmin=0 / qpmax=80 / qpstep=4 / ip_ratio=1.40 / aq=1:1.00
Default : Yes
Forced : No
Color range : Limited
Color primaries : BT.709
Transfer characteristics : BT.709
Matrix coefficients : BT.709

Audio
ID : 2
Format : AAC
Format/Info : Advanced Audio Codec
Format profile : LC
Codec ID : A_AAC-2
Duration : 2 h 25 min
Bit rate : 298 kb/s
Channel(s) : 2 channels
Channel positions : Front: L R
Sampling rate : 48.0 kHz
Frame rate : 46.875 FPS (1024 SPF)
Compression mode : Lossy
Stream size : 310 MiB (7%)
Default : Yes
Forced : No

x

Не пропустите

Удар крови / Strike the Blood [01-24 из 24 + OVA] (2013-2016) BDRip 720p | L, L2, L1

СКАЧАТЬ TORRENT ФАЙЛ Информация о фильме Название: Удар крови Оригинальное название: Strike the Blood (Strike ...