Главная » Видео » Мультфильмы » Арчер / Archer [09×01-05 из 08] (2018) WEBRip 720p | ColdFilm

Арчер / Archer [09×01-05 из 08] (2018) WEBRip 720p | ColdFilm

СКАЧАТЬ TORRENT ФАЙЛ

Информация о фильме
Название: Спецагент Арчер
Оригинальное название: Archer
Год выпуска: 2018
Жанр: Боевик, комедия, приключения, мультсериал
Режиссер: Адам Рид, Брайан Фордни
В ролях: Джон Бенжамин, Джуди Грир, Крис Парнел, Аиша Тайлер, Джессика Уолтер, Амбер Нэш, Адам Рид, Джордж Коу, Дэйв Уиллис

О фильме:
В международном шпионском агенстве ISIS любой мировой кризис — лишь предлог для высококлассных секретных агентов посоревноваться между собой в обмане и предательстве. Главным героем мультсериала является спецагент Стерлинг Арчер, известный также под кодовым именем «Герцогиня». На службе Арчеру приходится мириться со своей эксцентричной мамашей/начальницей — Мэлори, бывшей подружкой Ланой, озабоченной секретаршей Шерил и другими «интересными личностями».


Страна: США
Студия: FX Network, Floyd County Productions
Продолжительность: 5 x ~00:25:00
Перевод: Любительский многоголосый [ColdFilm]

Файл
Кодек: x264 (AVC)
Качество: WEBRip 720p
Видео: 3500 Кбит/с, 1280×720, 25.000 fps
Аудио: Русский (AC3, 2 ch, 192 Кбит/с)

Скриншоты

MIGeneral
Unique ID : 168941346413507313980730855229481790493 (0x7F18EB776052399C5649B55C1EEFAC1D)
Complete name : Archer.S09E01.720p.ColdFIlm.mkv
Format : Matroska
Format version : Version 2
File size : 592 MiB
Duration : 19 min 53 s
Overall bit rate : 4 159 kb/s
Encoded date : UTC 2017-11-20 18:25:40 / UTC 2017-11-20 18:25:40
Writing application : Lavf54.63.104
Writing library : Lavf54.63.104

Video
ID : 1
Format : AVC
Format/Info : Advanced Video Codec
Format profile : Main@L3.1
Format settings : CABAC / 1 Ref Frames
Format settings, CABAC : Yes
Format settings, ReFrames : 1 frame
Codec ID : V_MPEG4/ISO/AVC
Duration : 19 min 53 s
Bit rate : 4 000 kb/s
Width : 1 280 pixels
Height : 720 pixels
Display aspect ratio : 16:9
Frame rate mode : Constant
Frame rate : 25.000 FPS
Color space : YUV
Chroma subsampling : 4:2:0
Bit depth : 8 bits
Scan type : Progressive
Bits/(Pixel*Frame) : 0.174
Stream size : 553 MiB (93%)
Writing library : x264 core 129
Encoding settings : cabac=1 / ref=1 / deblock=1:0:0 / analyse=0x1:0x131 / me=dia / subme=2 / psy=1 / psy_rd=1.00:0.00 / mixed_ref=0 / me_range=16 / chroma_me=1 / trellis=0 / 8x8dct=0 / cqm=0 / deadzone=21,11 / fast_pskip=1 / chroma_qp_offset=0 / threads=4 / lookahead_threads=1 / sliced_threads=0 / nr=0 / decimate=1 / interlaced=0 / bluray_compat=0 / constrained_intra=0 / bframes=0 / weightp=2 / keyint=250 / keyint_min=25 / scenecut=40 / intra_refresh=0 / rc_lookahead=40 / rc=abr / mbtree=1 / bitrate=4000 / ratetol=1.0 / qcomp=0.60 / qpmin=10 / qpmax=51 / qpstep=4 / ip_ratio=1.41 / aq=1:1.00
Default : Yes
Forced : No

Audio
ID : 2
Format : AC-3
Format/Info : Audio Coding 3
Codec ID : A_AC3
Duration : 19 min 53 s
Bit rate mode : Constant
Bit rate : 192 kb/s
Channel(s) : 2 channels
Channel positions : Front: L R
Sampling rate : 48.0 kHz
Frame rate : 31.250 FPS (1536 SPF)
Bit depth : 16 bits
Compression mode : Lossy
Stream size : 27.3 MiB (5%)
Service kind : Complete Main
Default : Yes
Forced : No

x

Не пропустите

Охота на воров / Den of Thieves (2018) BDRip от MegaPeer | Расширенная версия | iTunes

СКАЧАТЬ TORRENT ФАЙЛ Информация о фильме Название: Охота на воров Оригинальное название: Den of Thieves ...