Главная » Видео » Мультфильмы » Ми-ми-мишки [90 из 104] (2015-2016) WEB-DLRip 1080p от ExKinoRay

Ми-ми-мишки [90 из 104] (2015-2016) WEB-DLRip 1080p от ExKinoRay

СКАЧАТЬ TORRENT ФАЙЛ

Информация о фильме
Название: Ми-ми-мишки
Год выхода: 2015-2016
Страна: Россия, студия Паровоз
Жанр: Мультсериал, детский, семейный, приключения
Продолжительность: 90 х ~ 00:05:30
Язык: русский

Режиссеры: Алексей Миронов, Артур Толстобров

Роли озвучивали: Полина Кутепова, Наталия Медведева, Дарья Мазанова, …

О фильме: Анимационный сериал «Ми-ми-мишки» в увлекательной форме рассказывает маленьким зрителям о забавных приключениях двух веселых медвежат – бурого медвежонка Иннокентия (Кешки) и его белого друга по имени Белая Тучка. Медвежата заняты своими обычными и не совсем обычными делами – собирают ягоды и грибы, ловят рыбу, читают книжки, летают на Луну. И неизбежно попадают в забавные, и, казалось бы, безвыходные ситуации.

Содержание
01. Звездная история
02. Грибы и листья
03. Фотоохота
04. Путешествие
05. Лучшая напоминалка
06. Несовременная еда
07. Борьба за урожай
08. Как лечить деревья
09. Домовой
10. Бессонница
11. Глобальное потепление
12. Огородники
13. Медовая история
14. Прогноз погоды
15. Змей на дереве
16. Финишная прямая
17. Пиратская история
18. Путешествие к звёздам
19. Победители дракона
20. Экспедиция на север
21. Больше не надо
22. Лучшее место в мире
23. Цыпа и динозавры
24. Фокусы с разоблачением
25. Настоящий Ниндзя
26. Нежданные гости
27. Необитаемый остров
28. Гол
29. Мишка-невидимка
30. Следствие ведут мишки
31. По своим правилам
32. Тучкина высота
33. Пещера, полная ловушек
34. Супер Мишки
35. В поход
36. Неуловимый Джо
37. Новогодний маскарад
38. Песня для Лисички
39. Умный дом
40. Сказка про репку
41. Мысли вслух
42. Маленькое приключение
43. Парк развлечений
44. Жемчужина севера
45. Кеша FM
46. Лучший друг Лисички
47. Богатый улов
48. Мишки на льду
49. Мой друг велосипед
50. Мишки в цирке
51. Баллада о рыцарях
52. Поиграем завтра
53. Зубная фея
54. Идеальные друзья
55. Проще простого
56. Вечный день
57. День рождения Лисички
58. Споры о красоте
59. Страшилки
60. Талисман удачи
61. Мне бы в небо
62. На связи
63. Сюрприз
64. Хорошие манеры
65. 5 минут назад
66. Игровой автомат
67. Слонопотам
68. Чистая правда
69. Розовые очки
70. Цыпа-почтальон
71. Хочу быть взрослой
72. Портрет белой Тучки
73. Подарок для Кеши
74. Пропавшая кукла
75. На 5 ходов вперёд
76. Большое приключение
77. Всё наоборот
78. Фильм-фильм-фильм
79. Дырявая память
80. Изобретатель чуда
81. Кеша — 2
82. Всё получится
83. Лунное приключение

85. Динозаврик
86. Всемашина
87. Речные гонки
88. Путешествие Цыпы

90. Помогашка

99. Контакт
100. Музей

Доп. информация:

Семпл

Файл
Формат: MP4
Качество: WEB-DLRip 1080p
Видео: MPEG4-AVC, 1920×1080 (16:9), ~ 2 476 Kbps, 25.000 fps
Звук: 44.1 KHz, AAC-LC 2.0, 126 Kbps
Субтитры: нет

MI
100. Музей. Full-HD-merci-.mp4
Format : MPEG-4
Format profile : Base Media
Codec ID : isom (isom/iso2/avc1/mp41)
File size : 102 MiB
Duration : 5 min 30 s
Overall bit rate mode : Variable
Overall bit rate : 2 604 kb/s
Encoded date : UTC 2017-01-13 14:00:15
Tagged date : UTC 2017-01-13 14:00:15

Video
ID : 1
Format : AVC
Format/Info : Advanced Video Codec
Format profile : High@L4
Format settings, CABAC : Yes
Format settings, ReFrames : 2 frames
Codec ID : avc1
Codec ID/Info : Advanced Video Coding
Duration : 5 min 30 s
Bit rate : 2 476 kb/s
Width : 1 920 pixels
Height : 1 080 pixels
Display aspect ratio : 16:9
Frame rate mode : Constant
Frame rate : 25.000 FPS
Color space : YUV
Chroma subsampling : 4:2:0
Bit depth : 8 bits
Scan type : Progressive
Bits/(Pixel*Frame) : 0.048
Stream size : 97.4 MiB (95%)
Encoded date : UTC 2017-01-13 14:00:15
Tagged date : UTC 2017-01-13 14:00:15
Color range : Limited
Color primaries : BT.709
Transfer characteristics : BT.709
Matrix coefficients : BT.709

Audio
ID : 2
Format : AAC
Format/Info : Advanced Audio Codec
Format profile : LC
Codec ID : 40
Duration : 5 min 30 s
Bit rate mode : Variable
Bit rate : 126 kb/s
Channel(s) : 2 channels
Channel positions : Front: L R
Sampling rate : 44.1 kHz
Frame rate : 43.066 FPS (1024 spf)
Compression mode : Lossy
Stream size : 4.94 MiB (5%)
Default : Yes
Alternate group : 1
Encoded date : UTC 2017-01-13 14:00:02
Tagged date : UTC 2017-01-13 14:00:02
Скриншоты

Добавил эпизоды:
+ 75-76 — 28.01.2017
+ 74,77 — 03.02.2017
+ 83,85 — 15.02.2017
+ 80,82 — 18.02.2017
+ 71,86,88 — 02.03.2017
+ 72-73,78-79,81,87,90 — 09.03.2017

Автор релиза:

/

x

Не пропустите

Волшебная жемчужина (2015) WEBRip от Krus33

СКАЧАТЬ TORRENT ФАЙЛ Информация о фильме Название: Волшебная жемчужина Год выхода: 2015 Жанр: Мультсериал, детский, ...