Главная » Видео » Мультфильмы » Подружки из Хартлейк Сити. Вебизоды / LEGO Friends. Webisodes [1-113] (2014-2017) WEB-DL 720p от ExKinoRay | D

Подружки из Хартлейк Сити. Вебизоды / LEGO Friends. Webisodes [1-113] (2014-2017) WEB-DL 720p от ExKinoRay | D

СКАЧАТЬ TORRENT ФАЙЛ

Информация о фильме
Название: Подружки из Хартлейк Сити. Вебизоды
Оригинальное название: Lego Friends. Webisodes
Год выпуска: 2014-2017
Страна: Дания, Таиланд, M2Film, LEGO, Picture This Studio
Жанр: мультсериал, приключения, романтика, комедия
Сезоны: 1,2,3.4
Продолжительность: 113 x ~ 00:03:15
Перевод: Профессиональный (полное дублирование)

Режиссёр: Педер Педерсен / Peder Pedersen

Роли озвучивали: Рич Баклойд, Ракель Кристиана, Джессика Ги, Тейлор Генри, Венди Ли, Софи Робертс

Описание: Вебизоды — это маленькие фрагменты из жизни героинь основного мультсериала «Подружки из Хартлейк Сити«. Они самостоятельны и самодостаточны. От основных серий независимы. Применена 2D графика в отличие от самого мультсериала (3D)>> На озере в форме сердца расположен маленький замечательный город Хартлейк Сити. Здесь и живут наши подружки Андреа, Эмма, Оливия, Мия, Стефани. Героини очень разные по характеру, взглядами, интересами…

Список серий
2014
s1e01. Первый рабочий день Андреа
s1e02. Жеребенок в ловушке
s1e03. Пляжный блюз
s1e04. Научное шоу Оливии
s1e05. Чудище голубой лагуны
s1e06. Не все потеряно
s1e07. Самый сок!
s1e08. Птица-говорун
s1e09. Розыгрыш
s1e10. Мишка в беде
s1e11. Одна команда
s1e12. Ночной поход
s1e13. Наука льда
s1e14. Портрет Тони
s1e15. Кексы в джунглях

2015
s2e01. Открытки-сердечки
s2e02. Переезд Эммы, Часть I
s2e03. Переезд Эммы, Часть II
s2e04. Любопытное мороженое
s2e05. Большие мечты (Big Dreams)
s2e06. Переполох на День Святого Валентина
s2e07. Репортаж из-за кулис
s2e08. Неприкосновенные
s2e09. Девочки не храпят
s2e10. В поисках сокровищ
s2e11. Во весь голос
s2e12. Сочные новости
s2e13. Попробуй, обмани
s2e14. Уроки дизайна от Эммы
s2e15. Спец доставка
s2e16. Создаем группу
s2e17. Ну, пап!
s2e18. Дружба повсюду
s2e19. Наш особый день
s2e20. Жизнь Ливи
s2e21. Озорные пузырьки
s2e22. Зловещий отель
s2e23. Собаки-скейтеры
s2e24. Нейт устраивает свидание
s2e25. Место для репетиций
s2e26. Голова кругом!
s2e27. День причесок
s2e28. Идеальный снимок
s2e29. Любовная песня Джейкоба
s2e30. Готовка и не только
s2e31. Брат, что ты наделал
s2e32. Веселье в студии
s2e33. Какая ты звезда
s2e34. Вкус науки
s2e35. Спи, малыш-скунс
s2e36. Любовные письма
s2e37. Большой секрет
s2e38. Видео-чудо. Часть 1
s2e39. Видео-чудо. Часть 2
s2e40. Обычная девчонка
s2e41. Маскарад
s2e42. Скоростное обслуживание номеров
s2e43. Сказка о двух вечеринках
s2e44. Кошмар с кроликом
s2e45. Идеальная пицца
s2e46. Тайна исчезнувших фруктов
s2e47. Звук сирены
s2e48. Пропавший пингвин
s2e49. Хор одной певицы
s2e50. Свидание по старинке
s2e51. Обратная сторона хоккея
s2e52. Дружный Новый Год

2016
s3e01. Нельзя не влюбиться в Хартлейк Сити!
s3e02. Неужели это свидание?
s3e03. Победитель получает всё
s3e04. Стефани Великая
s2e05. А тебе слабо?
s3e06. Не всем картам можно доверять
s3e07. И это ты называешь розыгрышем?
s3e08. Яичный переполох
s3e09. Подарок, который тает на глазах
s3e10. В самом сердце Дерева Дружбы
s3e11. День матери по полной
s3e12. В погоне за приключениями
s3e13. Хлеб насущный
s3e14. Аттракцион невиданной справедливости
s3e15. Обхитрить обманщика
s3e16. Как вылечить лошадь
s3e17. Время подкрепиться
s3e18. Хьюстон, у нас проблемы
s3e19. Большие надежды
s3e20. Собачий полдень
s3e21. Викторина для друзей
s3e22. Подружки в ритме
s3e23. КОТастрофический душ
s3e24. Опасная рыбалка
s3e25. Беспокойное ремесло
s3e26. Там где гнездятся орлы
s3e27. С днем рождения, Нейт!
s3e28. Колесо влюбленных
s3e29. Загадка озера
s3e30. Нашествие похитителей кексов
s3e31. Галопом
s3e32. Жёлтая Долли
s3e33. Тихо! Вы слышали это
s3e34. Гавкающая сторона Луны
s3e35. Торжество Мадам Багет
s3e36. Зимнее обещание
s3e37. Туфель много не бывает
s3e38. Привет из прошлого
s3e39. Новогодние хлопоты

2017
s4e01. Песня о дружбе от Андреа
s4e02. День идеальных снимков от Эммы
s4e03. Мия на работе
s4e04. Проверка на дружбу от Оливии
s4e05. Завтрак у Стефани
s4e06. Тачка на прокачку
s4e07. Мама Мия!

Доп. информация:
Работа со звуком, синхронизация — от —merci
Видео-ряд: русский (RUS)

Семпл

Файл
Формат: MKV
Качество: WEB-DL 720p
Видео: MPEG4-AVC, High@L3.1, 1280×720 (16:9), 25 fps, ~3 908 kbps
Аудио: 48 kHz, AC3 Dolby Digital, 2/0 (L,R) ch, ~192.00 kbps русский (дубляж)
Субтитры: отсутствуют
MI
s2e21. Озорные пузырьки. WEB-DL.720p.-merci-.mkv
Format : Matroska
Format version : Version 2
File size : 104 MiB
Duration : 3mn 28s
Overall bit rate : 4 183 Kbps
Movie name : LEGO Friends Webisode / 2012-2015 / — merci —
Encoded date : UTC 2016-02-07 17:10:55
Writing application : mkvmerge v5.8.0 ('No Sleep / Pillow') built on Sep 2 2012 15:37:04
Writing library : libebml v1.2.3 + libmatroska v1.3.0

Video
ID : 1
Format : AVC
Format/Info : Advanced Video Codec
Format profile : High@L3.1
Format settings, CABAC : Yes
Format settings, ReFrames : 2 frames
Codec ID : V_MPEG4/ISO/AVC
Duration : 3mn 28s
Bit rate : 3 908 Kbps
Width : 1 280 pixels
Height : 720 pixels
Display aspect ratio : 16:9
Frame rate mode : Constant
Frame rate : 25.000 fps
Color space : YUV
Chroma subsampling : 4:2:0
Bit depth : 8 bits
Scan type : Progressive
Bits/(Pixel*Frame) : 0.170
Stream size : 97.0 MiB (93%)
Title : s2e21. Озорные пузырьки. WEB-DL.720p.x264.-merci-
Language : Russian
Default : Yes
Forced : No
Color range : Limited
Color primaries : BT.709
Transfer characteristics : BT.709
Matrix coefficients : BT.709

Audio
ID : 2
Format : AC-3
Format/Info : Audio Coding 3
Mode extension : CM (complete main)
Format settings, Endianness : Big
Codec ID : A_AC3
Duration : 3mn 28s
Bit rate mode : Constant
Bit rate : 192 Kbps
Channel(s) : 2 channels
Channel positions : Front: L R
Sampling rate : 48.0 KHz
Compression mode : Lossy
Stream size : 4.76 MiB (5%)
Title : Dub
Language : Russian
Default : Yes
Forced : No

Скриншоты

Добавил эпизоды:
+ s3e06 — 03.04.2016
+ s3e07-s3e08 — 11.04.2016
+ s3e09-s3e13 — 25.05.2016
+ s3e14-s3e19 — 10.07.2016
+ s3e20-s3e39 — 08.01.2017
+ s4e01-s3e07 — 29.03.2017

Автор релиза:

/

x

Не пропустите

Волшебная жемчужина (2015) WEBRip от Krus33

СКАЧАТЬ TORRENT ФАЙЛ Информация о фильме Название: Волшебная жемчужина Год выхода: 2015 Жанр: Мультсериал, детский, ...