Главная » Видео » Наши фильмы » Частное пионерское 3. Привет, взрослая жизнь! (2017) WEB-DL 1080p | iTunes

Частное пионерское 3. Привет, взрослая жизнь! (2017) WEB-DL 1080p | iTunes

СКАЧАТЬ TORRENT ФАЙЛ

Информация о фильме
Название: Частное пионерское 3. Привет, взрослая жизнь!
Год выпуска: 2017
Жанр: Комедия, приключения, семейный
Режиссёр: Александр Карпиловский
В ролях: Семён Трескунов, Егор Клинаев, Анфиса Вистингаузен, Олег Блинов, Максим Иванов, Дарья Руденок, Мария Лисовая, Данил Стеклов, Руслан Сабиров, Евгений Антропов, Тимофей Трибунцев, Андрей Мерзликин, Елена Токмакова-Горбушина, Наталья Бичан, Алиса Супрун, Стас Румянцев, Илья Денискин, Анастасия Добрынина, Валентин Садики, Глеб Маханьков

Описание:
Завершающая часть трилогии о советском пионерском детстве, в которой наши герои оканчивают школу и попадают в череду приключений, прощаются с детством и начинают взрослеть.

Страна: Россия
Студия: Кинопрограмма XXI Век
Продолжительность: 01:34:29
Язык: Русский

Файл
Формат: MKV
Качество: WEB-DL 1080p
Видео: 1920×804 (2.40:1), 25 fps, MPEG-4 AVC ~ 4520 kbps avg, 0.117 bit/pixel
Звук: AAC, 48 kHz, 2 ch, ~127.00 kbps avg | русский | iTunes

Субтитры: Отсутствуют

Инфо-файлОбщее
Уникальный идентификатор : 252896884363968280914751083156409854349 (0xBE422B1207EB7D429CE03C88A09EA98D)
Полное имя : CHASTNOE_PIONERSKOE_3_2017_WEB-DL_1080p.mkv
Формат : Matroska
Версия формата : Version 4 / Version 2
Размер файла : 3,07 Гбайт
Продолжительность : 1 ч. 34 м.
Общий поток : 4649 Кбит/сек
Дата кодирования : UTC 2018-05-20 20:16:49
Программа кодирования : mkvmerge v9.7.1 ('Pandemonium') 64bit
Библиотека кодирования : libebml v1.3.4 + libmatroska v1.4.5

Видео
Идентификатор : 1
Формат : AVC
Формат/Информация : Advanced Video Codec
Профиль формата : High@L4
Настройки формата : CABAC / 5 Ref Frames
Параметр CABAC формата : Да
Параметр ReFrames формата : 5 кадров
Идентификатор кодека : V_MPEG4/ISO/AVC
Продолжительность : 1 ч. 34 м.
Битрейт : 4520 Кбит/сек
Ширина : 1920 пикселей
Высота : 804 пикселя
Соотношение сторон : 2,40:1
Режим частоты кадров : Постоянный
Частота кадров : 25,000 кадров/сек
Цветовое пространство : YUV
Субдискретизация насыщенности : 4:2:0
Битовая глубина : 8 бит
Тип развёртки : Прогрессивная
Бит/(Пиксели*Кадры) : 0.117
Размер потока : 2,98 Гбайт (97%)
Язык : English
Default : Да
Forced : Нет
Цветовой диапазон : Limited
Основные цвета : BT.709
Характеристики трансфера : BT.709
Коэффициенты матрицы : BT.709

Аудио
Идентификатор : 2
Формат : AAC
Формат/Информация : Advanced Audio Codec
Профиль формата : LC
Идентификатор кодека : A_AAC-2
Продолжительность : 1 ч. 34 м.
Битрейт : 127 Кбит/сек
Каналы : 2 канала
Расположение каналов : Front: L R
Частота : 48,0 КГц
Частота кадров : 46,875 кадров/сек (1024 SPF)
Метод сжатия : С потерями
Размер потока : 85,6 Мбайт (3%)
Заголовок : CHASTNOE_PIONERSKOE_3_2017_WEB-DL_1080p
Язык : Russian
Default : Да
Forced : Нет
Скриншоты



x

Не пропустите

Уайат Сенак разрулит / Wyatt Cenac’s Problem Areas [01×01-07 из 13] (2018) HDTVRip | ColdFIlm

СКАЧАТЬ TORRENT ФАЙЛ Информация о фильме Название: Уайат Сенак разрулит Оригинальное название: Wyatt Cenac's Problem ...