Главная » Видео » Наши фильмы » Движение вверх (2017) WEB-DLRip-AVC от Generalfilm | iTunes

Движение вверх (2017) WEB-DLRip-AVC от Generalfilm | iTunes

СКАЧАТЬ TORRENT ФАЙЛ

Информация о фильме
Название: Движение вверх
Год выпуска: 2017
Страна: Россия
Жанр: спорт, драма

Перевод: оригинал [iTunes] Субтитры: Русские, на иностранную речь (хардсаб)
Продолжительность: 02:08:30
Режиссер: Антон Мегердичев
В ролях: Владимир Машков (Владимир Гаранжин), Андрей Смоляков (Григорий Моисеев), Иван Колесников (Александр Белов), Кирилл Зайцев (Сергей Белов), Джон Сэвэдж (Генри Айба), Марат Башаров (Терещенко), Александра Ревенко (Александра Свечникова), Виктория Толстоганова (Ксения), Сергей Гармаш (Сергей Павлов, глава госкомспорта), Джеймс Тратас (Модестас Паулаускас), Кузьма Сапрыкин (Иван Едешко), Александр Ряполов (Алжан Жармухамедов)

Описание:
Есть победы, которые меняют ход истории. Победы духа, победы страны, победы всего мира. Таким триумфом стали легендарные «три секунды» — выигрыш сборной СССР по баскетболу на роковой мюнхенской Олимпиаде 1972 г. Впервые за 36 лет была повержена «непобедимая» команда США. Никто даже помыслить не мог о том, что это возможно — обыграть великолепных непогрешимых американцев на Олимпийских играх! Никто, кроме советских баскетболистов (русских и грузин, украинцев и казахов, белорусов и литовцев).
Рейтинг:


Качество: WEB-DLRip-AVC
Формат: MKV
Видео: AVC, 1024×430 (2.40:1), 3100 kbps, 25 fps, 0,282 bpp
Аудио: русский / AC3 / 5.1 / 48 kHz / 384 kbps / ||
Семпл

ОтчетМедиаИнфо
General
Unique ID : 243221104508341856751771483220456051731 (0xB6FAAE4ABDAA2D9696B38EEF13D11413)
Complete name : E:запись с твDvizhenie vverx.2017.WEB-DLRip-AVC.by.White Smoke.R.G.Generalfilm.mkv
Format : Matroska
Format version : Version 2
File size : 3.13 GiB
Duration : 2 h 8 min
Overall bit rate : 3 485 kb/s
Movie name : Dvizhenie vverx.2017.WEB-DLRip-AVC.by.White Smoke.R.G.Generalfilm.mkv
Encoded date : UTC 2018-05-20 17:27:26
Writing application : mkvmerge v7.6.0 ('Garden of Dreams') 32bit built on Feb 11 2015 00:18:47
Writing library : libebml v1.3.1 + libmatroska v1.4.2

Video
ID : 1
Format : AVC
Format/Info : Advanced Video Codec
Format profile : High@L4.1
Format settings, CABAC : Yes
Format settings, ReFrames : 10 frames
Codec ID : V_MPEG4/ISO/AVC
Duration : 2 h 8 min
Bit rate : 3 100 kb/s
Width : 1 024 pixels
Height : 430 pixels
Display aspect ratio : 2.40:1
Frame rate mode : Constant
Frame rate : 25.000 FPS
Color space : YUV
Chroma subsampling : 4:2:0
Bit depth : 8 bits
Scan type : Progressive
Bits/(Pixel*Frame) : 0.282
Stream size : 2.72 GiB (87%)
Writing library : x264 core 148 r2638 7599210
Encoding settings : cabac=1 / ref=10 / deblock=1:-2:-1 / analyse=0x3:0x113 / me=umh / subme=11 / psy=1 / psy_rd=0.00:0.15 / mixed_ref=1 / me_range=32 / chroma_me=1 / trellis=2 / 8x8dct=1 / cqm=0 / deadzone=21,11 / fast_pskip=0 / chroma_qp_offset=-3 / threads=6 / lookahead_threads=1 / sliced_threads=0 / nr=0 / decimate=0 / interlaced=0 / bluray_compat=0 / constrained_intra=0 / bframes=10 / b_pyramid=2 / b_adapt=2 / b_bias=0 / direct=1 / weightb=1 / open_gop=0 / weightp=2 / keyint=250 / keyint_min=25 / scenecut=40 / intra_refresh=0 / rc_lookahead=40 / rc=2pass / mbtree=1 / bitrate=3100 / ratetol=1.0 / qcomp=0.65 / qpmin=0 / qpmax=69 / qpstep=4 / cplxblur=20.0 / qblur=0.5 / vbv_maxrate=50000 / vbv_bufsize=65500 / nal_hrd=none / filler=0 / ip_ratio=1.40 / aq=1:1.00
Language : English
Default : Yes
Forced : No

Audio
ID : 2
Format : AC-3
Format/Info : Audio Coding 3
Mode extension : CM (complete main)
Format settings, Endianness : Big
Codec ID : A_AC3
Duration : 2 h 8 min
Bit rate mode : Constant
Bit rate : 384 kb/s
Channel(s) : 6 channels
Channel positions : Front: L C R, Side: L R, LFE
Sampling rate : 48.0 kHz
Frame rate : 31.250 FPS (1536 spf)
Compression mode : Lossy
Stream size : 353 MiB (11%)
Title : iTunes
Language : Russian
Default : Yes
Forced : No

Скриншоты

x

Не пропустите

Процесс / The Trial: The State of Russia vs Oleg Sentsov (2017) WEB-DL 1080p

СКАЧАТЬ TORRENT ФАЙЛ Год выпуска: 2017 Страна: Эстония, Польша, Чехия Жанр: Документальный Продолжительность: 01:08:08 Русские ...