Главная » Видео » Наши фильмы » Кроткая (2017) BDRip 1080p от OlLanDGroup | Лицензия

Кроткая (2017) BDRip 1080p от OlLanDGroup | Лицензия

СКАЧАТЬ TORRENT ФАЙЛ

Информация о фильме

Оригинальное название: Кроткая
Год выпуска: 2017
Жанр: Драма, детектив, экранизация
Выпущено: Франция, Россия, Германия, Латвия, Литва, Нидерланды, Украина, GP Cinema Company, Potemkine Films
Режиссер: Сергей Лозница
В ролях: Василина Маковцева, Валериу Андрюцэ, Сергей Колесов, Дмитрий Быковский, Лия Ахеджакова, Светлана Колесова, Сергей Фёдоров (II), Алиса Кравцова, Александр Замураев, Константин Итунин, Антон Фёдоров

О фильме: По мотивам одноименного рассказа Ф. М. Достоевского. Действие происходит в наши дни. Женщине на почте возвращают посылку, посланную ею некоторое время назад мужу, отбывающему срок за преступление, которого он не совершал. Несчастная женщина, глубоко расстроенная, решает ехать к мужу, чтобы узнать, что случилось. Так начинается рассказ о путешествии, история абсурдной битвы против системы…

Качество: BDRip (1080p)
Видео: MPEG-4 AVC, 6255 Кбит/с, 1920х720, 24 кадр/с
Аудио: Русский (AC3, 6 сh, 640 Кбит/с), (DTS, 6 сh, 1509 Кбит/с)
Размер: 8.38 ГБ
Продолжительность: 02:22:50
Язык: Русский

Озвучивание — (Лицензия)
Сохранены оригинальные чаптеры как на Blu-Ray.

x264
x264 [info]: frame I:910 Avg QP:13.94 size:217084
x264 [info]: frame P:48675 Avg QP:17.08 size: 67069
x264 [info]: frame B:156107 Avg QP:18.60 size: 20728
x264 [info]: consecutive B-frames: 1.5% 3.0% 8.1% 42.1% 18.4% 19.5% 4.3% 1.5% 0.7% 0.3% 0.6%
x264 [info]: mb I I16..4: 16.1% 65.3% 18.5%
x264 [info]: mb P I16..4: 1.8% 8.8% 0.8% P16..4: 32.0% 33.7% 12.5% 1.9% 0.2% skip: 8.3%
x264 [info]: mb B I16..4: 0.1% 0.7% 0.1% B16..8: 32.9% 17.6% 3.0% direct: 5.8% skip:39.8% L0:43.4% L1:43.7% BI:13.0%
x264 [info]: 8×8 transform intra:76.4% inter:50.3%
x264 [info]: direct mvs spatial:99.4% temporal:0.6%
x264 [info]: coded y,uvDC,uvAC intra: 96.0% 92.6% 78.0% inter: 26.1% 22.8% 12.6%
x264 [info]: i16 v,h,dc,p: 6% 5% 34% 55%
x264 [info]: i8 v,h,dc,ddl,ddr,vr,hd,vl,hu: 9% 8% 9% 10% 14% 12% 14% 12% 13%
x264 [info]: i4 v,h,dc,ddl,ddr,vr,hd,vl,hu: 10% 9% 5% 9% 16% 14% 15% 11% 13%
x264 [info]: i8c dc,h,v,p: 49% 16% 16% 19%
x264 [info]: Weighted P-Frames: Y:2.3% UV:1.1%
x264 [info]: ref P L0: 45.4% 8.9% 24.7% 9.4% 10.5% 1.1% 0.0%
x264 [info]: ref B L0: 71.9% 19.6% 6.2% 2.3%
x264 [info]: ref B L1: 93.1% 6.9%
x264 [info]: kb/s:6251.99

Инфо-файл
Общее
Уникальный идентификатор : 193316499657061484175211080274848196238 (0x916F674E9E37486D87D2533E1A47268E)
Полное имя : D:ЗагрузкиKrotkaja.2017.x264.BDRip.(1080p).OlLanDGroup.mkv
Формат : Matroska
Версия формата : Version 4 / Version 2
Размер файла : 8,38 Гбайт
Продолжительность : 2 ч. 22 м.
Общий поток : 8404 Кбит/сек
Название фильма : Кроткая.2017.Rip by: ollan
Дата кодирования : UTC 2018-05-19 00:49:52
Программа кодирования : mkvmerge v6.5.0 ('Isn't she lovely') built on Oct 20 2013 12:50:05
Библиотека кодирования : libebml v1.3.0 + libmatroska v1.4.1
Attachements : Cover — Krotkaja.png

Видео
Идентификатор : 1
Формат : AVC
Формат/Информация : Advanced Video Codec
Профиль формата : High@L4.1
Параметр CABAC формата : Да
Параметр RefFrames формата : 5 кадров
Идентификатор кодека : V_MPEG4/ISO/AVC
Продолжительность : 2 ч. 22 м.
Битрейт : 6255 Кбит/сек
Ширина : 1920 пикселей
Высота : 720 пикселей
Соотношение сторон : 2,667
Режим частоты кадров : Постоянный
Частота кадров : 24,000 кадра/сек
Цветовое пространство : YUV
Субдискретизация насыщенности : 4:2:0
Битовая глубина : 8 бит
Тип развёртки : Прогрессивная
Бит/(Пиксели*Кадры) : 0.189
Размер потока : 6,07 Гбайт (72%)
Библиотека кодирования : x264 core 146 r2538 121396c
Настройки программы : cabac=1 / ref=5 / deblock=1:-2:-3 / analyse=0x3:0x133 / me=umh / subme=11 / psy=1 / psy_rd=0.90:0.05 / mixed_ref=1 / me_range=64 / chroma_me=1 / trellis=2 / 8x8dct=1 / cqm=0 / deadzone=21,11 / fast_pskip=0 / chroma_qp_offset=-3 / threads=12 / lookahead_threads=3 / sliced_threads=0 / nr=0 / decimate=0 / interlaced=0 / bluray_compat=0 / constrained_intra=0 / bframes=10 / b_pyramid=2 / b_adapt=2 / b_bias=0 / direct=3 / weightb=1 / open_gop=0 / weightp=2 / keyint=240 / keyint_min=23 / scenecut=40 / intra_refresh=0 / rc_lookahead=40 / rc=2pass / mbtree=0 / bitrate=6255 / ratetol=1.0 / qcomp=0.60 / qpmin=0 / qpmax=69 / qpstep=4 / cplxblur=20.0 / qblur=0.5 / vbv_maxrate=50000 / vbv_bufsize=62500 / nal_hrd=none / filler=0 / ip_ratio=1.40 / pb_ratio=1.30 / aq=1:1.00
Язык : Russian
Default : Да
Forced : Нет

Аудио #1
Идентификатор : 2
Формат : AC-3
Формат/Информация : Audio Coding 3
Расширение режима : CM (complete main)
Параметр Endianness формата : Big
Идентификатор кодека : A_AC3
Продолжительность : 2 ч. 22 м.
Вид битрейта : Постоянный
Битрейт : 640 Кбит/сек
Каналы : 6 каналов
Расположение каналов : Front: L C R, Side: L R, LFE
Частота : 48,0 КГц
Частота кадров : 31,250 кадров/сек (1536 spf)
Метод сжатия : С потерями
Размер потока : 654 Мбайт (8%)
Заголовок : Лицензия
Язык : Russian
Default : Да
Forced : Нет

Аудио #2
Идентификатор : 3
Формат : DTS
Формат/Информация : Digital Theater Systems
Режим : 16
Параметр Endianness формата : Big
Идентификатор кодека : A_DTS
Продолжительность : 2 ч. 22 м.
Вид битрейта : Постоянный
Битрейт : 1509 Кбит/сек
Каналы : 6 каналов
Расположение каналов : Front: L C R, Side: L R, LFE
Частота : 48,0 КГц
Частота кадров : 93,750 кадра/сек (512 spf)
Битовая глубина : 24 бит
Метод сжатия : С потерями
Размер потока : 1,51 Гбайт (18%)
Заголовок : Лицензия
Язык : Russian
Default : Нет
Forced : Нет

Меню
00:00:00.000 : ru:Chapter 01
00:13:31.625 : ru:Chapter 02
00:33:12.333 : ru:Chapter 03
00:46:57.583 : ru:Chapter 04
01:01:42.000 : ru:Chapter 05
01:41:52.000 : ru:Chapter 06
02:22:50.500 : ru:Chapter 07

Скриншоты



x

Не пропустите

Колония / Colony [03×01-05 из 13] (2018) WEBRip 720p | IdeaFilm

СКАЧАТЬ TORRENT ФАЙЛ Информация о фильме Название: Колония Оригинальное название: Colony Год выхода: 2018 Жанр: ...