Главная » Видео » Наши фильмы » Легенда о Коловрате (2017) BDRip 720р от HQCLUB | Лицензия

Легенда о Коловрате (2017) BDRip 720р от HQCLUB | Лицензия

СКАЧАТЬ TORRENT ФАЙЛ

Информация о фильме
Название: Легенда о Коловрате (2017) BDRip 720р от HQCLUB

О фильме:

Информация о фильме
Оригинальное название: Легенда о Коловрате
Год выхода: 2017
Жанр: история, боевик, фэнтези
Режиссер: Джаник Файзиев, Иван Шурховецкий
В ролях: Илья Малаков, Полина Чернышова, Алексей Серебряков, Александр Ильин мл., Игорь Савочкин, Тимофей Трибунцев, Александр Цой, Юлия Хлынина, Андрей Бурковский, Виктор Проскурин
О фильме: XIII век. Русь раздроблена и вот-вот падет на колени перед ханом Золотой Орды Батыем. Испепеляя города и заливая русские земли кровью, захватчики не встречают серьезного сопротивления, и лишь один воин бросает им вызов. Молодой рязанский витязь Евпатий Коловрат возглавляет отряд смельчаков, чтобы отомстить за свою любовь и за свою родину. Его отвага поразит даже Батыя, а его имя навсегда останется в памяти народа. Воин, ставший легендой. Подвиг, сохранившийся в веках.

Релиз от


Автор рипа: Sky™

Выпущено: Россия
Продолжительность: 01:57:52
Субтитры: нет

  • Сохранены оригинальные чаптеры как на Blu-ray.

    Файл:
    Формат: mkv
    Качество: BDRip 720p (источник:

    / Blu-Ray Disc Ger / 1080p)
    Видео: 1280×536 (2.40:1), 23.976 fps, [email protected] ~5000 kbps avg, 0.304 bit/pixel
    Аудио #1: 48 kHz, AC3 Dolby Digital, 3/2 (L,C,R,l,r) + LFE ch, ~640 kbps avg (RUS) BD RUS
    Размер: 4747.49 Mb

    MediaINFOОбщее
    Уникальный идентификатор : 197366904381133961321469581931570850916 (0x947B7BAD9CC13B4A8DA7BA3CE83CEC64)
    Полное имя : Legenda.o.Kolovrate.2017.BDRip.720p.x264.AVC.-HQCLUB.mkv
    Формат : Matroska
    Версия формата : Version 4 / Version 2
    Размер файла : 4,64 Гбайт
    Продолжительность : 1 ч. 57 м.
    Общий поток : 5631 Кбит/сек
    Дата кодирования : UTC 2018-05-20 15:54:09
    Программа кодирования : mkvmerge v7.4.0 ('Circles') 64bit built on Dec 12 2014 12:19:56
    Библиотека кодирования : libebml v1.3.0 + libmatroska v1.4.1
    _STATISTICS_WRITING_APP : mkvmerge v7.4.0 ('Circles') 64bit built on Dec 12 2014 12:19:56
    _STATISTICS_WRITING_DATE_UTC : 2018-05-20 15:54:09
    _STATISTICS_TAGS : BPS DURATION NUMBER_OF_FRAMES NUMBER_OF_BYTES
    DURATION : 01:57:52.256000000
    NUMBER_OF_FRAMES : 221008
    NUMBER_OF_BYTES : 565780480

    Видео
    Идентификатор : 1
    Формат : AVC
    Формат/Информация : Advanced Video Codec
    Профиль формата : High@L4.1
    Параметр CABAC формата : Да
    Параметр ReFrames формата : 12 кадров
    Идентификатор кодека : V_MPEG4/ISO/AVC
    Продолжительность : 1 ч. 57 м.
    Битрейт : 5000 Кбит/сек
    Ширина : 1280 пикселей
    Высота : 536 пикселей
    Соотношение сторон : 2,40:1
    Частота кадров : 23,976 кадра/сек
    Цветовое пространство : YUV
    Субдискретизация насыщенности : 4:2:0
    Битовая глубина : 8 бит
    Тип развёртки : Прогрессивная
    Бит/(Пиксели*Кадры) : 0.304
    Размер потока : 4,02 Гбайт (87%)
    Заголовок : Легенда о Коловрате (2017) BDRip 720p | HQCLUB
    Библиотека кодирования : x264 core 155 r2901 7d0ff22
    Настройки программы : cabac=1 / ref=12 / deblock=1:-3:-3 / analyse=0x3:0x133 / me=umh / subme=11 / psy=1 / psy_rd=1.00:0.00 / mixed_ref=1 / me_range=32 / chroma_me=1 / trellis=2 / 8x8dct=1 / cqm=0 / deadzone=21,11 / fast_pskip=0 / chroma_qp_offset=-4 / threads=12 / lookahead_threads=3 / sliced_threads=0 / nr=0 / decimate=0 / interlaced=0 / bluray_compat=0 / constrained_intra=0 / bframes=13 / b_pyramid=2 / b_adapt=2 / b_bias=0 / direct=3 / weightb=1 / open_gop=0 / weightp=2 / keyint=240 / keyint_min=24 / scenecut=40 / intra_refresh=0 / rc_lookahead=40 / rc=2pass / mbtree=0 / bitrate=5000 / ratetol=1.0 / qcomp=0.60 / qpmin=10 / qpmax=51 / qpstep=4 / cplxblur=20.0 / qblur=0.5 / vbv_maxrate=62500 / vbv_bufsize=78125 / nal_hrd=none / filler=0 / ip_ratio=1.40 / pb_ratio=1.30 / aq=1:0.90
    Язык : German

    Аудио
    Идентификатор : 2
    Формат : AC-3
    Формат/Информация : Audio Coding 3
    Расширение режима : CM (complete main)
    Идентификатор кодека : A_AC3
    Продолжительность : 1 ч. 57 м.
    Вид битрейта : Постоянный
    Битрейт : 640 Кбит/сек
    Каналы : 6 каналов
    Расположение каналов : Front: L C R, Side: L R, LFE
    Частота : 48,0 КГц
    Битовая глубина : 16 бит
    Метод сжатия : С потерями
    Размер потока : 540 Мбайт (11%)
    Заголовок : Ориганальная звуковая дорожка
    Язык : Russian

    x264 logframe I:1332 Avg QP:16.13 size:125362
    frame P:45115 Avg QP:19.04 size: 47080
    frame B:123117 Avg QP:20.77 size: 17217
    consecutive B-frames: 4.8% 6.4% 15.8% 24.4% 14.6% 20.8% 6.2% 4.0% 1.3% 0.7% 0.4% 0.2% 0.2% 0.3%
    mb I I16..4: 2.2% 80.7% 17.0%
    mb P I16..4: 0.5% 14.4% 1.6% P16..4: 26.5% 32.8% 16.2% 3.2% 0.4% skip: 4.4%
    mb B I16..4: 0.1% 1.8% 0.2% B16..8: 33.9% 25.3% 5.2% direct: 7.6% skip:25.8% L0:39.9% L1:40.3% BI:19.8%

  • x

    Не пропустите

    Удар крови / Strike the Blood [01-24 из 24 + OVA] (2013-2016) BDRip 720p | L, L2, L1

    СКАЧАТЬ TORRENT ФАЙЛ Информация о фильме Название: Удар крови Оригинальное название: Strike the Blood (Strike ...