Главная » Club » Наркоман Павлик [S04] (2018) WEBRip 1080p

Наркоман Павлик [S04] (2018) WEBRip 1080p

СКАЧАТЬ TORRENT ФАЙЛ

Название: Наркоман Павлик
Год выхода: 2018
Жанр: Комедия, короткометражный
Режиссер: Павел Радонцев
В ролях: Павел Радонцев, Денис Гущин, Кирилл Демидов, Антон Батищев, Илья Сорокин, Андрей Савицкий, Регина Вожова, Иван Солдаткин, Ольга Лапушкина, Михаил Мартынов, Хамид Дышниев, Андрей Мирославский, Артём Веретенников, Николай Гусляров

О сериале:
Короткометражный, юмористический сериал о приключениях Павлика, от участников проектов Comedy Club Samara Style, Comedy Club Saint-Petersburg. Сериал стремительно набирает популярность, фразы Павлика всё чаще встречаются на просторах рунета. «Здорова братиш!» — если вы слышали это и не знали откуда, смотрите. Очень угарная и ржачная тема!

Страна: Россия
Студия: Comedoz
Продолжительность: ~00:15:00
Перевод: Не требуется
Субтитры: Нет
Рекламы: Нет

Файл
Формат: MKV
Качество: WEBRip (1080p)

Видео: MPEG-4 AVC, ~ 5000 Кбит/с, 1920×1080
Звук: AC3, 2 ch, 192 Кбит/с

MediaInfoОбщее
Уникальный идентификатор : 8772515990281568695725232340571994771 (0x699866E7B8856921B9718FFB3E73A93)
Полное имя : Павлик 4 сезон 1 серия.mkv
Формат : Matroska
Версия формата : Version 4 / Version 2
Размер файла : 667 Мбайт
Продолжительность : 17 м. 53 с.
Общий поток : 5209 Кбит/сек
Дата кодирования : UTC 2018-06-03 08:21:57
Программа кодирования : mkvmerge v23.0.0 ('The Bride Said No') 64-bit
Библиотека кодирования : libebml v1.3.6 + libmatroska v1.4.9
Attachments : poster.jpg

Видео
Идентификатор : 1
Формат : AVC
Формат/Информация : Advanced Video Codec
Профиль формата : Main@L5.1
Настройки формата : CABAC / 1 Ref Frames
Параметр CABAC формата : Да
Параметр RefFrames формата : 1 кадр
Идентификатор кодека : V_MPEG4/ISO/AVC
Продолжительность : 17 м. 53 с.
Битрейт : 5015 Кбит/сек
Ширина : 1920 пикселей
Высота : 1080 пикселей
Соотношение сторон : 16:9
Режим частоты кадров : Постоянный
Частота кадров : 25,000 кадров/сек
Цветовое пространство : YUV
Субдискретизация насыщенности : 4:2:0
Битовая глубина : 8 бит
Тип развёртки : Прогрессивная
Бит/(Пиксели*Кадры) : 0.097
Размер потока : 642 Мбайт (96%)
Default : Да
Forced : Нет

Аудио
Идентификатор : 2
Формат : AC-3
Формат/Информация : Audio Coding 3
Идентификатор кодека : A_AC3
Продолжительность : 17 м. 53 с.
Вид битрейта : Постоянный
Битрейт : 192 Кбит/сек
Каналы : 2 канала
Расположение каналов : Front: L R
Частота : 48,0 КГц
Частота кадров : 31,250 кадров/сек (1536 SPF)
Битовая глубина : 16 бит
Метод сжатия : С потерями
Размер потока : 24,6 Мбайт (4%)
Default : Да
Forced : Нет
Скриншоты

x

Не пропустите

Частное пионерское 3. Привет, взрослая жизнь! (2017) WEB-DLRip от MegaPeer | iTunes

СКАЧАТЬ TORRENT ФАЙЛ Информация о фильме Название: Частное пионерское 3. Привет, взрослая жизнь! Год выхода: ...