Главная » Видео » Сериалы » Вера / Vera [S04] (2014) WEB-DLRip | ТВЦ

Вера / Vera [S04] (2014) WEB-DLRip | ТВЦ

СКАЧАТЬ TORRENT ФАЙЛ

Информация о фильме
Название: Вера
Оригинальное название: Vera
Год выхода: 2013
Жанр: Драма, детектив
Режиссер: Питер Хор, Пол Уиттингтон / Peter Hoar, Paul Whittington
В ролях: Бренда Блетин, Дэвид Леон, Пол Риттер, Джон Моррисон, Вунми Моссаку, Соня Кэссиди

О фильме:
Главная героиня сериала — старший инспектор криминальной полиции Вера Стенхоуп, которая одержима работой и ведома своими собственными демонами. Если ей одиноко, она не подаст виду и предстанет перед миром с язвительной остротой, лукавинкой в глазах и отвагой. В паре с ней работает надёжный и терпеливый коллега Джо Эшуорт. Вместе они берутся за каждое новое дело с непревзойдённым рвением и профессионализмом.


Страна: Великобритания
Студия: ITV Studios
Продолжительность: ~01:28:00 серия
Перевод: Профессиональный (многоголосый, закадровый) [ТВЦ] Файл
Формат: XviD / AC3
Качество: WEB-DLRip
Видео: MPEG4, XviD, 720×400 (16/9), 25.000 fps, 1 400 Kbps (0.194 bit/pixel)
Аудио#1: Russian: 48 kHz, AC3, 2/0 (L,R) ch, ~192.00 kbps | Многоголосый закадровый, ТВЦ
Аудио#2: English: 48 kHz, AC3, 2/0 (L,R) ch, ~192.00 kbps

Скриншоты


Описание серий:01: «Castles in the Air — Воздушные замки»
В глухой деревушке застрелена молодая массажистка Лиззи Фолкнер. Стенхоуп выясняет, что девушка отдыхала там вместе с подругами. Полицейские полагают, что преступником является Роберт Дорн, недавно вышедший из тюрьмы. Вера же уверена, что девушка убита случайно, а истинной целью убийцы была Карина, клиентка Лиззи. А вскоре Карину сбивает машина…

02: «SilPoster Child — Примерный ребёнок»
Убит известный хирург Дэн Марсден, а его несовершеннолетние дочери Мира и Карен похищены. Вера выясняет, что Мира родом из Ирака и была удочерена врачом после того, как погибла вся её семья. При расследовании выясняется, что у Миры остался брат. Именно он и похитил девочек.

03: «Young Gods — Юные боги»
На глазах у компании подростков в огне погибает их тренер – Гидеон Фрэйна, любитель экстремальных видов спорта. Вера узнаёт, что семь лет назад в школе, где учился погибший, произошла странная ссора Фрэйна с одноклассниками. А вскоре погиб один из учителей школы. Детектив находит участников тех событий…

04: «Prodigal Son — Блудный сын»
Возле ночного клуба в Ньюкасле заколот бывший полицейский Джон. Детективы узнают, что незадолго до гибели мужчина планировал создать семью с замужней матерью-одиночкой Лизи. Вера уверена, что так жестоко устранить соперника мог Рос, ревнивый муж Лизи. Однако выясняется, что в последнее время погибший занимался сбором компромата на жениха своей сестры…
MediaInfoОбщее
Полное имя : K:4×01 — On Harbour Street (На Харбор-Стрит).avi
Формат : AVI
Формат/Информация : Audio Video Interleave
Размер файла : 1,10 Гбайт
Продолжительность : 1 ч. 29 м.
Общий поток : 1759 Кбит/сек
Название фильма : Вера. Сезон 4 / Vera. Season 4 (2014)
Программа кодирования : VirtualDubMod 1.5.10.2 (build 2540/release)
Библиотека кодирования : VirtualDubMod build 2540/release
Авторское право : miha2154

Видео
Идентификатор : 0
Формат : MPEG-4 Visual
Профиль формата : Advanced Simple@L5
Параметр BVOP формата : 1
Параметр QPel формата : Нет
Параметр GMC формата : Без точки перехода
Параметр матрицы формата : Выборочная
Идентификатор кодека : DX50
Идентификатор кодека/Подсказка : DivX 5
Продолжительность : 1 ч. 29 м.
Битрейт : 1360 Кбит/сек
Ширина : 720 пикселей
Высота : 400 пикселей
Соотношение сторон : 16:9
Частота кадров : 25,000 кадров/сек
Цветовое пространство : YUV
Субдискретизация насыщенности : 4:2:0
Битовая глубина : 8 бит
Тип развёртки : Прогрессивная
Метод сжатия : С потерями
Бит/(Пиксели*Кадры) : 0.189
Размер потока : 867 Мбайт (77%)
Библиотека кодирования : XviD 65

Аудио #1
Идентификатор : 1
Формат : AC-3
Формат/Информация : Audio Coding 3
Расширение режима : CM (complete main)
Параметр Endianness формата : Big
Идентификатор кодека : 2000
Продолжительность : 1 ч. 29 м.
Вид битрейта : Постоянный
Битрейт : 192 Кбит/сек
Каналы : 2 канала
Расположение каналов : Front: L R
Частота : 48,0 КГц
Частота кадров : 31,250 кадров/сек (1536 spf)
Метод сжатия : С потерями
Размер потока : 122 Мбайт (11%)
Выравнивание : Разделение по промежуткам
Продолжительность промежутка : 40 мс. (1,00 видеокадр)
Время предзагрузки промежутка : 500 мс.
Заголовок : Профессиональный (многоголосый закадровый) ТВЦ

Аудио #2
Идентификатор : 2
Формат : AC-3
Формат/Информация : Audio Coding 3
Расширение режима : CM (complete main)
Параметр Endianness формата : Big
Идентификатор кодека : 2000
Продолжительность : 1 ч. 29 м.
Вид битрейта : Постоянный
Битрейт : 192 Кбит/сек
Каналы : 2 канала
Расположение каналов : Front: L R
Частота : 48,0 КГц
Частота кадров : 31,250 кадров/сек (1536 spf)
Метод сжатия : С потерями
Размер потока : 122 Мбайт (11%)
Выравнивание : Разделение по промежуткам
Продолжительность промежутка : 40 мс. (1,00 видеокадр)
Время предзагрузки промежутка : 500 мс.
Заголовок : Английский

x

Не пропустите

Полночное солнце / Midnight Sun (2018) HDRip от MegaPeer | iTunes

СКАЧАТЬ TORRENT ФАЙЛ Информация о фильме Название: Полночное солнце Оригинальное название: Midnight Sun Год выпуска: ...