Главная » Видео » Телевизор » Последний герой / Survivor [36×01-16 из 18] (2018) WEBRip 720p | ColdFilm

Последний герой / Survivor [36×01-16 из 18] (2018) WEBRip 720p | ColdFilm

СКАЧАТЬ TORRENT ФАЙЛ

Информация о фильме
Название: Последний герой
Оригинальное название: Survivor
Год выпуска: 2017
Жанр: Приключения, реалити-шоу
Режиссер: Майкл Саймон, Дон Рой Кинг, Гленн Уайсс
В ролях: Джефф Пробст, Роб Мариано, Руперт Бонам, Джерри Мантей, Колби Дональдсон, Тина Уэссон, Оскар Ласт, Parvati Shallow, Бенжамин Вэйд, Аманда Киммел

О фильме:
Две группы людей, жувущие на необитаемых островах, не имеющие связи с большой землей, состязаются друг с другом, пока их не объединят в одно племя. Но в конце останется только один. Именно он и получит главный приз.


Страна: США
Студия: Castaway Television Productions, MGM Television
Продолжительность: 16 x ~ 00:40:00
Перевод: Любительский многоголосый | ColdFilm

Файл
Кодек: x.264
Качество: WEBRip 720p
Видео: 4000 Кбит/с, 1280×720, 29.970 fps
Аудио: Русский (AC3, 2 ch, 192 Кбит/с)

Скриншоты

MediaInfoGeneral
Unique ID : 194649140833052140005221143511194173699 (0x92700F9702449EEAA7A39B9AAD908103)
Complete name : D:Survivor.S36E01E02.720p.WEB-DL.ColdFilm.mkv
Format : Matroska
Format version : Version 2
File size : 2.51 GiB
Duration : 1 h 26 min
Overall bit rate : 4 159 kb/s
Encoded date : UTC 2018-03-01 21:00:16 / UTC 2018-03-01 07:50:54
Writing application : mkvmerge v3.3.0 ('Language') built on Mar 24 2010 14:59:24
Writing library : libebml v0.8.0 + libmatroska v0.9.0 / Lavf54.63.104

Video
ID : 1
Format : AVC
Format/Info : Advanced Video Codec
Format profile : Main@L3.1
Format settings : CABAC / 1 Ref Frames
Format settings, CABAC : Yes
Format settings, ReFrames : 1 frame
Codec ID : V_MPEG4/ISO/AVC
Duration : 1 h 26 min
Bit rate : 4 000 kb/s
Width : 1 280 pixels
Height : 720 pixels
Display aspect ratio : 16:9
Frame rate mode : Constant
Frame rate : 29.970 (30000/1001) FPS
Color space : YUV
Chroma subsampling : 4:2:0
Bit depth : 8 bits
Scan type : Progressive
Bits/(Pixel*Frame) : 0.145
Stream size : 2.34 GiB (93%)
Writing library : x264 core 129
Encoding settings : cabac=1 / ref=1 / deblock=1:0:0 / analyse=0x1:0x131 / me=dia / subme=2 / psy=1 / psy_rd=1.00:0.00 / mixed_ref=0 / me_range=16 / chroma_me=1 / trellis=0 / 8x8dct=0 / cqm=0 / deadzone=21,11 / fast_pskip=1 / chroma_qp_offset=0 / threads=4 / lookahead_threads=1 / sliced_threads=0 / nr=0 / decimate=1 / interlaced=0 / bluray_compat=0 / constrained_intra=0 / bframes=0 / weightp=2 / keyint=250 / keyint_min=25 / scenecut=40 / intra_refresh=0 / rc_lookahead=40 / rc=abr / mbtree=1 / bitrate=4000 / ratetol=1.0 / qcomp=0.60 / qpmin=10 / qpmax=51 / qpstep=4 / ip_ratio=1.41 / aq=1:1.00
Default : No
Forced : No

Audio
ID : 2
Format : AC-3
Format/Info : Audio Coding 3
Codec ID : A_AC3
Duration : 1 h 26 min
Bit rate mode : Constant
Bit rate : 192 kb/s
Channel(s) : 2 channels
Channel positions : Front: L R
Sampling rate : 48.0 kHz
Frame rate : 31.250 FPS (1536 SPF)
Bit depth : 16 bits
Compression mode : Lossy
Stream size : 118 MiB (5%)
Service kind : Complete Main
Default : Yes
Forced : No

x

Не пропустите

Тайна Егора, или Необыкновенные приключения обыкновенным летом (2013) WEB-DLRip-AVC от Files-x

СКАЧАТЬ TORRENT ФАЙЛ Информация о фильме Оригинальное название: Тайна Егора, или Необыкновенные приключения обыкновенным летом ...