Главная » Видео » Телевизор » Процесс / The Trial: The State of Russia vs Oleg Sentsov (2017) WEB-DL 1080p

Процесс / The Trial: The State of Russia vs Oleg Sentsov (2017) WEB-DL 1080p

СКАЧАТЬ TORRENT ФАЙЛ

Год выпуска: 2017
Страна: Эстония, Польша, Чехия
Жанр: Документальный
Продолжительность: 01:08:08
Русские субтитры: нет
Режиссер: Аскольд Куров
Сценарий: Аскольд Куров
Продюсер: Макс Туула, Мария Гаврилова, Дариуш Яблоньски, Изабела Вуйцик, Виолетта Каминьска
Композитор: Сорин Апостол
Студия : Marx Film, Message Film, Czech Television, Polish Film Institute, B2B Doc
Язык оригинальной аудиодорожки: русский

Описание: Олег Сенцов — украинский кинорежиссер.В мае 2014 года Сенцов был арестован ФСБ, обвинен в подготовке терактов и ​​доставлен в Москву. Его «дело» рассматривалось больше года, после чего Сенцов был приговорен к 20 годам лишения свободы, несмотря на то, что показания против него были даны под давлением и доказательств было недостаточно. Сам Сенцов никогда себя виновным не признавал.

В фильме «Процесс» режиссер Аскольд Куров следит за ходом судебного разбирательства и попытками семьи, друзей, адвокатов Олега спасти его от тюрьмы. «Дело Сенцова» вызвало протесты во всем мире: освободить Олега призывала Европейская киноакадемия и многие известные режиссеры — такие, как Педро Альмодовар, Вим Вендерс, Александр Сокуров, Агнешка Холланд, Кен Лоуч, Джонни Депп и другие. История Олега Сенцова — страшная, абсурдная, кафкианская история. Фильм о суде над Олегом Сенцовым, российской государственной машине, героизме и трусости.

Олега Сенцова сейчас сравнивают с Анатолием Марченко, погибшим в 1986 году в тюрьме в результате бессрочной голодовки с требованием освобождения всех советских политзаключенных.Надо сказать, что случай Сенцова еще чудовищней. Марченко был советским гражданином, судимым по советским же преступным законам. Сенцов же – украинский гражданин, похищенный на оккупированной территории карательными органами захватчиков,в этом разница.

Качество видео: Web-DL 1080p
Формат видео: MPEG-4
Аудио: MPEG Audio 128 Кбит/сек

Видео: 1920×1080 (16:9), 5005 kbps, 25,000 fps
Аудио: AC3, 128 kbps, 44,0 kHz, 2.0 (Original)

MediaInfo
Общее
Полное имя : C:«Процесс».Фильм Аскольда Курова.2017.mp4
Формат : MPEG-4
Профиль формата : Base Media
Идентификатор кодека : isom
Размер файла : 2,45 Гбайт
Продолжительность : 1 ч. 8 м.
Общий поток : 5138 Кбит/сек
Дата кодирования : UTC 2018-05-22 21:46:56
Дата пометки : UTC 2018-05-22 21:46:56

Видео
Идентификатор : 2
Формат : AVC
Формат/Информация : Advanced Video Codec
Профиль формата : Baseline@L3.0
Параметр CABAC формата : Нет
Параметр ReFrames формата : 1 кадр
Параметр GOP формата : M=1, N=25
Идентификатор кодека : avc1
Идентификатор кодека/Информация : Advanced Video Coding
Продолжительность : 1 ч. 8 м.
Битрейт : 5005 Кбит/сек
Ширина : 1920 пикселей
Высота : 1080 пикселей
Соотношение сторон : 16:9
Режим частоты кадров : Постоянный
Частота кадров : 25,000 кадров/сек
Цветовое пространство : YUV
Субдискретизация насыщенности : 4:2:0
Битовая глубина : 8 бит
Тип развёртки : Прогрессивная
Бит/(Пиксели*Кадры) : 0.097
Размер потока : 2,38 Гбайт (97%)
Библиотека кодирования : ˜лЄм
Язык : English

Аудио
Идентификатор : 1
Формат : AAC
Формат/Информация : Advanced Audio Codec
Профиль формата : LC
Идентификатор кодека : 40
Продолжительность : 1 ч. 8 м.
Вид битрейта : Постоянный
Битрейт : 128 Кбит/сек
Каналы : 2 канала
Расположение каналов : Front: L R
Частота : 44,1 КГц
Метод сжатия : С потерями
Размер потока : 62,3 Мбайт (2%)
Язык : English

Скриншоты

Язык- поправлено!

x

Не пропустите

Частное пионерское 3. Привет, взрослая жизнь! (2017) WEB-DLRip от MegaPeer | iTunes

СКАЧАТЬ TORRENT ФАЙЛ Информация о фильме Название: Частное пионерское 3. Привет, взрослая жизнь! Год выхода: ...