Главная » Indie » Манчестер у моря / Manchester by the Sea (2016) BDRip 720p | Лицензия

Манчестер у моря / Manchester by the Sea (2016) BDRip 720p | Лицензия

СКАЧАТЬ TORRENT ФАЙЛ

Информация о фильме
Название: Манчестер у моря
Оригинальное название: Manchester by the Sea
Год выхода: 2016
Жанр: драма
Режиссер: Кеннет Лонерган
В ролях: Кейси Аффлек, Бен О'Брайэн, Кайл Чандлер, Ричард Донелли, Virginia Loring Cooke, Куинси Тайлер Бернстайн, Мисси Ягер, Стивен Хендерсон, Бен Хэнсон, Мэри Мэллен

О фильме: Нелюдимый и погруженный в себя Ли работает слесарем в многоквартирном доме. Узнав, что его старший брат умер, Ли возвращается в родной городок. Он вспоминает свою жизнь в этом городе и страшную трагедию, произошедшую с его собственной семьей. Неожиданно он узнает, что в завещании брат указал его опекуном 16-летнего племянника. Через взаимоотношения с подростком Ли пытается найти смысл дальнейшего существования.

Выпущено: США
Производство: Amazon Studios, B Story, Big Indie Pictures, CMP, K Period Media, Odd Lot Entertainment, Pearl Street Films, The Affleck/Middleton Project, The Media Farm
Продолжительность: 02:17:32
Озвучивание: Дублированное [Лицензия Blu-ray EUR]

Файл
Формат: MKV
Качество: BDRip 720p
Видео: 1280×692 (1,85:1), 23.976 fps, MPEG-4 AVC ~ 9557 Кbps avg, 0.450 bit/pixel
Аудио: DTS, 48 kHz, 6 ch, ~768.00 kbps avg | русский | Профессиональный (полное дублирование)[Blu-ray EUR] Аудио: DTS, 48 kHz, 6 ch, ~1509.00 kbps avg | украинский | Многоголосый закадровый, студия «Омикрон»
Аудио: DTS, 48 kHz, 6 ch, ~1510.00 kbps avg | английский | Оригинал
Аудио: AC3, 48 kHz, 2 ch, ~192.00 kbps avg | английский | Audio Commentary with Director / Writer Kenneth Lonergan
Субтитры: Russian (Forced, Blu-ray EUR), Russian (Blu-ray EUR), English, English (SDH)

Инфо-файлGeneral
Unique ID : 247604038741595629347995051130757740046 (0xBA46CDA2358CAB1A999CCFD15CD6760E)
Complete name : Manchester.by.the.Sea.2016.720p.BluRay.DTS.Rus.Ukr.2xEng.HDCLUB.mkv
Format : Matroska
Format version : Version 2
File size : 13.3 GiB
Duration : 2 h 17 min
Overall bit rate : 13.8 Mb/s
Movie name : Manchester by the Sea (2016) — Release for HDCLUB
Encoded date : UTC 2017-04-23 16:16:32
Writing application : mkvmerge v3.4.0 ('Rapunzel') built on May 15 2010 09:38:20
Writing library : libebml v0.8.0 + libmatroska v0.9.0

Video
ID : 1
Format : AVC
Format/Info : Advanced Video Codec
Format profile : High@L4.1
Format settings, CABAC : Yes
Format settings, ReFrames : 9 frames
Codec ID : V_MPEG4/ISO/AVC
Duration : 2 h 17 min
Bit rate : 9 557 kb/s
Width : 1 280 pixels
Height : 692 pixels
Display aspect ratio : 1.85:1
Frame rate mode : Constant
Frame rate : 23.976 (24000/1001) FPS
Color space : YUV
Chroma subsampling : 4:2:0
Bit depth : 8 bits
Scan type : Progressive
Bits/(Pixel*Frame) : 0.450
Stream size : 9.18 GiB (69%)
Title : Manchester by the Sea (2016) — Release for HDCLUB
Writing library : x264 core 148 r2744 b97ae06
Encoding settings : cabac=1 / ref=9 / deblock=1:-3:-3 / analyse=0x3:0x133 / me=tesa / subme=11 / psy=1 / psy_rd=1.03:0.00 / mixed_ref=1 / me_range=32 / chroma_me=1 / trellis=2 / 8x8dct=1 / cqm=0 / deadzone=21,11 / fast_pskip=0 / chroma_qp_offset=-2 / threads=12 / lookahead_threads=3 / sliced_threads=0 / nr=0 / decimate=0 / interlaced=0 / bluray_compat=0 / constrained_intra=0 / bframes=16 / b_pyramid=2 / b_adapt=2 / b_bias=0 / direct=3 / weightb=1 / open_gop=0 / weightp=2 / keyint=250 / keyint_min=23 / scenecut=40 / intra_refresh=0 / rc_lookahead=250 / rc=crf / mbtree=0 / crf=17.2 / qcomp=0.63 / qpmin=0 / qpmax=69 / qpstep=4 / vbv_maxrate=62500 / vbv_bufsize=78125 / crf_max=0.0 / nal_hrd=none / filler=0 / ip_ratio=1.30 / pb_ratio=1.20 / aq=3:0.65 / zones=32,502,crf=15.7/503,975,crf=16.7/14055,14128,crf=16.7/14220,14384,crf=16.7/15441,15574,crf=16.7/15706,16212,crf=16.7/16302,16352,crf=16.7/16435,16531,crf=16.7/18141,18485,crf=16.7/56192,56333,crf=16.2/70838,70981,crf=16.7/78214,78275,crf=16.2/80981,81132,crf=16.7/92350,92499,crf=16.7/123810,123872,crf=16.7/123989,124124,crf=16.7/124641,124731,crf=16.7/124791,124949,crf=16.7/125150,125271,crf=16.7/150325,150677,crf=16.7/152110,152542,crf=16.7/160704,160919,crf=16.7/178384,178460,crf=16.2/178816,179020,crf=16.2/191038,197506,crf=17.5/197506,197833,crf=16.2
Language : English
Default : Yes
Forced : No
Color range : Limited
Color primaries : BT.709
Transfer characteristics : BT.709
Matrix coefficients : BT.709

Audio #1
ID : 2
Format : DTS
Format/Info : Digital Theater Systems
Mode : 16
Format settings, Endianness : Big
Codec ID : A_DTS
Duration : 2 h 17 min
Bit rate mode : Constant
Bit rate : 755 kb/s
Channel(s) : 6 channels
Channel positions : Front: L C R, Side: L R, LFE
Sampling rate : 48.0 kHz
Frame rate : 93.750 FPS (512 spf)
Bit depth : 24 bits
Compression mode : Lossy
Stream size : 742 MiB (5%)
Title : DTS 5.1 @ 768 kbps — DUB, Blu-ray EUR
Language : Russian
Default : Yes
Forced : No

Audio #2
ID : 3
Format : DTS
Format/Info : Digital Theater Systems
Mode : 16
Format settings, Endianness : Big
Codec ID : A_DTS
Duration : 2 h 17 min
Bit rate mode : Constant
Bit rate : 1 509 kb/s
Channel(s) : 6 channels
Channel positions : Front: L C R, Side: L R, LFE
Sampling rate : 48.0 kHz
Frame rate : 93.750 FPS (512 spf)
Bit depth : 24 bits
Compression mode : Lossy
Stream size : 1.45 GiB (11%)
Title : DTS 5.1 @ 1536 kbps — MVO, OMiCRON
Language : Ukrainian
Default : No
Forced : No

Audio #3
ID : 4
Format : DTS
Format/Info : Digital Theater Systems
Mode : 16
Format settings, Endianness : Big
Codec ID : A_DTS
Duration : 2 h 17 min
Bit rate mode : Constant
Bit rate : 1 510 kb/s
Channel(s) : 6 channels
Channel positions : Front: L C R, Side: L R, LFE
Sampling rate : 48.0 kHz
Frame rate : 93.750 FPS (512 spf)
Bit depth : 24 bits
Compression mode : Lossy
Stream size : 1.45 GiB (11%)
Title : DTS 5.1 @ 1536 kbps
Language : English
Default : No
Forced : No

Audio #4
ID : 5
Format : AC-3
Format/Info : Audio Coding 3
Format settings, Endianness : Big
Codec ID : A_AC3
Duration : 2 h 17 min
Bit rate mode : Constant
Bit rate : 192 kb/s
Channel(s) : 2 channels
Channel positions : Front: L R
Sampling rate : 48.0 kHz
Frame rate : 31.250 FPS (1536 spf)
Bit depth : 16 bits
Compression mode : Lossy
Stream size : 189 MiB (1%)
Title : AC3 2.0 @ 192 kbps — A Conversation with Director / Writer Kenneth Lonergan
Language : English
Service kind : Complete Main
Default : No
Forced : No

Text #1
ID : 6
Format : UTF-8
Codec ID : S_TEXT/UTF8
Codec ID/Info : UTF-8 Plain Text
Title : Forced, Blu-ray EUR
Language : Russian
Default : Yes
Forced : No

Text #2
ID : 7
Format : UTF-8
Codec ID : S_TEXT/UTF8
Codec ID/Info : UTF-8 Plain Text
Title : Blu-ray EUR
Language : Russian
Default : No
Forced : No

Text #3
ID : 8
Format : UTF-8
Codec ID : S_TEXT/UTF8
Codec ID/Info : UTF-8 Plain Text
Language : English
Default : No
Forced : No

Text #4
ID : 9
Format : UTF-8
Codec ID : S_TEXT/UTF8
Codec ID/Info : UTF-8 Plain Text
Title : SDH
Language : English
Default : No
Forced : No

Menu
00:00:00.000 : en:Chapter 1
00:09:24.189 : en:Chapter 2
00:16:06.465 : en:Chapter 3
00:26:27.336 : en:Chapter 4
00:34:25.230 : en:Chapter 5
00:43:50.336 : en:Chapter 6
00:49:20.541 : en:Chapter 7
00:59:14.551 : en:Chapter 8
01:11:07.889 : en:Chapter 9
01:18:13.856 : en:Chapter 10
01:28:43.818 : en:Chapter 11
01:37:53.993 : en:Chapter 12
01:46:43.314 : en:Chapter 13
01:54:39.289 : en:Chapter 14
02:02:43.273 : en:Chapter 15
02:12:49.962 : en:Chapter 16
Скриншоты

x

Не пропустите

Удар крови / Strike the Blood [01-24 из 24 + OVA] (2013-2016) BDRip 720p | L, L2, L1

СКАЧАТЬ TORRENT ФАЙЛ Информация о фильме Название: Удар крови Оригинальное название: Strike the Blood (Strike ...