Главная » Видео » Зарубежные фильмы » Можно только представить / I Can Only Imagine (2018) BDRemux 1080p от ExKinoRay | iTunes

Можно только представить / I Can Only Imagine (2018) BDRemux 1080p от ExKinoRay | iTunes

СКАЧАТЬ TORRENT ФАЙЛ

Информация о фильме
Название: Можно только представить
Оригинальное название: I Can Only Imagine
Год выхода: 2018
Жанр: Драма, семейный
Режиссер(ы): Эндрю Эрвин, Джон Эрвин
В ролях: Дэннис Куэйд, Дж. Майкл Финли, Броди Роуз, Трэйси Эдкинс, Эрик Ашлок, Джина Д. Брюэр, О'Шей Брукс, Джейсон Бёрки, Тэген Бернс

О фильме: История рождения одноименной песни группы MercyMe. Лидер команды посвятил эту песню о вере, любви и прощении своему отцу, не подозревая, что скоро она облетит весь мир, станет платиновым хитом, а главное — подарит надежду миллионам людей.

Страна: США
Студия: Kevin Downes Productions, Mission Pictures International, City on a Hill Productions
Продолжительность: 01:50:20
Перевод: Дублированный | iTunes

Качество: BDRemux 1080p
Видео: MPEG-4 AVC, 1920×1080, 23.0 Mbit/s, 23.976 fps
Звук:
Аудио #01: 48 kHz, AC3, 5.1, 384 Kbps | iTunes | RUS |

Аудио #02: 48 kHz, DTS-HD MA, 5.1, 3223 Kbps | Оригинал | ENG |

Субтитры: Английские

MIGeneral
Unique ID : 71949859513049149533486962650830412739 (0x362109F4E55447F05680B038FCF51BC3)
Complete name : C:Video111I.Can.Only.Imagine.2018.BDREMUX.1080p.ExKinoRay.mkv
Format : Matroska
Format version : Version 4 / Version 2
File size : 20.5 GiB
Duration : 1 h 50 min
Overall bit rate mode : Variable
Overall bit rate : 26.6 Mb/s
Movie name : I Can Only Imagine 2018 from ExKinoRay
Encoded date : UTC 2018-06-05 14:54:19
Writing application : mkvmerge v22.0.0 ('At The End Of The World') 64-bit
Writing library : libebml v1.3.5 + libmatroska v1.4.8

Video
ID : 1
Format : AVC
Format/Info : Advanced Video Codec
Format profile : High@L4.1
Format settings : CABAC / 4 Ref Frames
Format settings, CABAC : Yes
Format settings, ReFrames : 4 frames
Codec ID : V_MPEG4/ISO/AVC
Duration : 1 h 50 min
Bit rate mode : Variable
Bit rate : 23.0 Mb/s
Maximum bit rate : 35.0 Mb/s
Width : 1 920 pixels
Height : 1 080 pixels
Display aspect ratio : 16:9
Frame rate mode : Constant
Frame rate : 23.976 (24000/1001) FPS
Standard : NTSC
Color space : YUV
Chroma subsampling : 4:2:0
Bit depth : 8 bits
Scan type : Progressive
Bits/(Pixel*Frame) : 0.462
Stream size : 17.7 GiB (86%)
Language : English
Default : Yes
Forced : No
Color range : Limited
Color primaries : BT.709
Transfer characteristics : BT.709
Matrix coefficients : BT.709

Audio #1
ID : 2
Format : AC-3
Format/Info : Audio Coding 3
Codec ID : A_AC3
Duration : 1 h 50 min
Bit rate mode : Constant
Bit rate : 384 kb/s
Channel(s) : 6 channels
Channel positions : Front: L C R, Side: L R, LFE
Sampling rate : 48.0 kHz
Frame rate : 31.250 FPS (1536 SPF)
Bit depth : 16 bits
Compression mode : Lossy
Stream size : 303 MiB (1%)
Title : iTunes
Language : Russian
Service kind : Complete Main
Default : Yes
Forced : Yes

Audio #2
ID : 3
Format : DTS
Format/Info : Digital Theater Systems
Format profile : MA / Core
Codec ID : A_DTS
Duration : 1 h 50 min
Bit rate mode : Variable / Constant
Bit rate : 3 223 kb/s / 1 509 kb/s
Channel(s) : 6 channels
Channel positions : Front: L C R, Side: L R, LFE
Sampling rate : 48.0 kHz
Frame rate : 93.750 FPS (512 SPF)
Bit depth : 24 bits
Compression mode : Lossless / Lossy
Stream size : 2.48 GiB (12%)
Title : Original
Language : English
Default : No
Forced : No

Text
ID : 4
Format : UTF-8
Codec ID : S_TEXT/UTF8
Codec ID/Info : UTF-8 Plain Text
Duration : 1 h 44 min
Bit rate : 52 b/s
Count of elements : 1226
Stream size : 40.1 KiB (0%)
Title : Full
Language : English
Default : No
Forced : No

Menu
00:00:00.000 : en:Chapter 1
00:08:27.841 : en:Chapter 2
00:14:29.869 : en:Chapter 3
00:21:22.281 : en:Chapter 4
00:28:10.689 : en:Chapter 5
00:36:22.180 : en:Chapter 6
00:44:25.663 : en:Chapter 7
00:52:21.138 : en:Chapter 8
01:01:10.667 : en:Chapter 9
01:09:12.148 : en:Chapter 10
01:13:46.422 : en:Chapter 11
01:22:25.941 : en:Chapter 12
01:26:10.165 : en:Chapter 13
01:34:16.651 : en:Chapter 14
01:41:24.078 : en:Chapter 15
01:45:43.337 : en:Chapter 16

Автор релиза:


Подпишись на меня, кликни по картинке > :

x

Не пропустите

Колония / Colony [03×01-05 из 13] (2018) WEBRip 720p | IdeaFilm

СКАЧАТЬ TORRENT ФАЙЛ Информация о фильме Название: Колония Оригинальное название: Colony Год выхода: 2018 Жанр: ...