Главная » Видео » Зарубежные фильмы » Мрачная долина / Dark Vale (2017) HDRip-AVC | L2

Мрачная долина / Dark Vale (2017) HDRip-AVC | L2

СКАЧАТЬ TORRENT ФАЙЛ

Информация о фильме
Название: Мрачная долина
Оригинальное название: Dark Vale
Год выхода: 2017
Жанр: ужасы
Режиссер: Джейсон М. Джей Браун
В ролях: Даррен Уитфилд, Кэти Ричмонд-Уорд, Сэди Ким, Даррен Рэндалл, Хлоя Кларк, Мартин Фармило и другие
О фильме:
Исследуя руины старинной церкви неподалеку от Лондона, молодая пара привлекает к себе внимание мстительной Леди Люси, которая умерла в долине более 100 лет назад в день своей свадьбы.

Страна: Великобритания
Продолжительность: 01:25:21
Перевод: Любительский (двухголосый закадровый) | HiWay Grope

Файл
Кодек: MPEG-4 AVC/x.264
Качество: HDRip
Видео: 720×400, 23.976 fps, ~1637 kbps, 0.237 bit/pixel
Звук:
Аудио rus: AC3, 48 kHz, 2 ch, 192 Kbps
Субтитры: отсутствуют

Реклама: присутствует

Семпл

MediaInfo:
General
Unique ID : 337475674711648545469837208898965438472 (0xFDE37363E3BFC14D0F5D9B71CE758008)
Complete name : E:Dark.Vale.2017.HDRip-AVC.HiWayGropeDark.Vale.2017.HDRip-AVC.HiWayGrope.mkv
Format : Matroska
Format version : Version 4 / Version 2
File size : 1.11 GiB
Duration : 1h 25mn
Overall bit rate : 1 866 Kbps
Encoded date : UTC 2018-06-05 14:38:23
Writing application : mkvmerge v21.0.0 ('Tardigrades Will Inherit The Earth') 64-bit
Writing library : libebml v1.3.5 + libmatroska v1.4.8

Video
ID : 1
Format : AVC
Format/Info : Advanced Video Codec
Format profile : Main@L4.1
Format settings, CABAC : Yes
Format settings, ReFrames : 4 frames
Codec ID : V_MPEG4/ISO/AVC
Duration : 1h 25mn
Bit rate : 1 637 Kbps
Width : 720 pixels
Height : 400 pixels
Display aspect ratio : 16:9
Frame rate mode : Constant
Frame rate : 23.976 (24000/1001) fps
Standard : NTSC
Color space : YUV
Chroma subsampling : 4:2:0
Bit depth : 8 bits
Scan type : Progressive
Bits/(Pixel*Frame) : 0.237
Stream size : 999 MiB (88%)
Language : English
Default : Yes
Forced : No
Color range : Limited
Color primaries : BT.601 NTSC
Transfer characteristics : BT.601
Matrix coefficients : BT.601

Audio
ID : 2
Format : AC-3
Format/Info : Audio Coding 3
Mode extension : CM (complete main)
Format settings, Endianness : Big
Codec ID : A_AC3
Duration : 1h 25mn
Bit rate mode : Constant
Bit rate : 192 Kbps
Channel(s) : 2 channels
Channel positions : Front: L R
Sampling rate : 48.0 KHz
Frame rate : 31.250 fps (1536 spf)
Compression mode : Lossy
Stream size : 117 MiB (10%)
Language : Russian
Default : Yes
Forced : No

Скриншоты

x

Не пропустите

Удар крови / Strike the Blood [01-24 из 24 + OVA] (2013-2016) BDRip 720p | L, L2, L1

СКАЧАТЬ TORRENT ФАЙЛ Информация о фильме Название: Удар крови Оригинальное название: Strike the Blood (Strike ...