Главная » Видео » Зарубежные фильмы » Пятьдесят оттенков свободы / Fifty Shades Freed (2018) BDRemux 1080p от ExKinoRay | Расширенная версия | Лицензия

Пятьдесят оттенков свободы / Fifty Shades Freed (2018) BDRemux 1080p от ExKinoRay | Расширенная версия | Лицензия

СКАЧАТЬ TORRENT ФАЙЛ

Информация о фильме
Название: Пятьдесят оттенков свободы
Оригинальное название: Fifty Shades Freed
Год выхода: 2018
Жанр: Триллер, драма, мелодрама
Режиссер: Джеймс Фоули
В ролях: Дакота Джонсон, Джейми Дорнан, Эрик Джонсон, Элоиза Мамфорд, Рита Ора, Люк Граймс, Виктор Расук, Макс Мартини, Дженнифер Или, Марша Гей Харден

О фильме: Кристиан и Анастейша поженились и живут в своё удовольствие, наслаждаясь обществом друг друга. Однако жизнь новоиспечённой миссис Грей находится в опасности, поскольку объявляется недруг, который собирается мстить, используя свою богатую фантазию. Призраки прошлого Кристиана вновь вернулись, а тучи над супругами сгущаются всё сильнее.

Страна: США
Студия: Universal Pictures, Moving Picture Company, The
Продолжительность: 01:50:18
Перевод: Дублированный | Лицензия

Качество: BDRemux 1080p
Видео: MPEG-4 AVC, 1920×1080, 27.9 Mbit/s, 23.976 fps
Звук:
Аудио #01: 48 kHz, DTS, 5.1, 768 Kbps | Дублированный | RUS |

Аудио #02: 48 kHz, AC3, 5.1, 448 Kbps | Дублированный | RUS |

Аудио #03: 48 kHz, DTS-HD MA, 7.1, 3280 Kbps | Оригинал | ENG |

Субтитры: Русские (forced, full), английские

MIGeneral
Unique ID : 15201143307931128247107987689746088051 (0xB6FA23AB980D3FB7ED3905F9BEA4073)
Complete name : C:Video111Fifty.Shades.Freed.2018.UNR.BDREMUX.1080p.ExKinoRay.mkv
Format : Matroska
Format version : Version 4 / Version 2
File size : 25.0 GiB
Duration : 1 h 50 min
Overall bit rate mode : Variable
Overall bit rate : 32.4 Mb/s
Movie name : Fifty Shades Freed 2018 from ExKinoRay
Encoded date : UTC 2018-05-27 07:53:42
Writing application : mkvmerge v22.0.0 ('At The End Of The World') 64-bit
Writing library : libebml v1.3.5 + libmatroska v1.4.8

Video
ID : 1
Format : AVC
Format/Info : Advanced Video Codec
Format profile : High@L4.1
Format settings : CABAC / 4 Ref Frames
Format settings, CABAC : Yes
Format settings, ReFrames : 4 frames
Codec ID : V_MPEG4/ISO/AVC
Duration : 1 h 50 min
Bit rate mode : Variable
Bit rate : 27.9 Mb/s
Maximum bit rate : 33.0 Mb/s
Width : 1 920 pixels
Height : 1 080 pixels
Display aspect ratio : 16:9
Frame rate mode : Constant
Frame rate : 23.976 (24000/1001) FPS
Color space : YUV
Chroma subsampling : 4:2:0
Bit depth : 8 bits
Scan type : Progressive
Bits/(Pixel*Frame) : 0.561
Stream size : 21.5 GiB (86%)
Language : English
Default : Yes
Forced : No

Audio #1
ID : 2
Format : DTS
Format/Info : Digital Theater Systems
Codec ID : A_DTS
Duration : 1 h 50 min
Bit rate mode : Constant
Bit rate : 768 kb/s
Channel(s) : 6 channels
Channel positions : Front: L C R, Side: L R, LFE
Sampling rate : 48.0 kHz
Frame rate : 93.750 FPS (512 SPF)
Bit depth : 24 bits
Compression mode : Lossy
Stream size : 606 MiB (2%)
Title : Dub [License] Language : Russian
Default : Yes
Forced : Yes

Audio #2
ID : 3
Format : AC-3
Format/Info : Audio Coding 3
Codec ID : A_AC3
Duration : 1 h 50 min
Bit rate mode : Constant
Bit rate : 448 kb/s
Channel(s) : 6 channels
Channel positions : Front: L C R, Side: L R, LFE
Sampling rate : 48.0 kHz
Frame rate : 31.250 FPS (1536 SPF)
Bit depth : 16 bits
Compression mode : Lossy
Stream size : 353 MiB (1%)
Title : Dub [License] Language : Russian
Service kind : Complete Main
Default : No
Forced : No

Audio #3
ID : 4
Format : DTS
Format/Info : Digital Theater Systems
Format profile : X / MA / Core
Codec ID : A_DTS
Duration : 1 h 50 min
Bit rate mode : Variable / Variable / Constant
Bit rate : 3 280 kb/s / 3 280 kb/s / 1 509 kb/s
Channel(s) : Object Based / 8 channels / 6 channels
Channel positions : Object Based / Front: L C R, Side: L R, Back: L R, LFE / Front: L C R, Side: L R, LFE
Sampling rate : / 48.0 kHz / 48.0 kHz
Frame rate : 93.750 FPS (512 SPF)
Bit depth : / 24 bits / 24 bits
Compression mode : / Lossless / Lossy
Stream size : 2.53 GiB (10%)
Title : Original
Language : English
Default : No
Forced : No

Text #1
ID : 5
Format : UTF-8
Codec ID : S_TEXT/UTF8
Codec ID/Info : UTF-8 Plain Text
Duration : 1 h 49 min
Bit rate : 1 b/s
Count of elements : 30
Stream size : 1.02 KiB (0%)
Title : Forced
Language : Russian
Default : Yes
Forced : Yes

Text #2
ID : 6
Format : UTF-8
Codec ID : S_TEXT/UTF8
Codec ID/Info : UTF-8 Plain Text
Duration : 1 h 49 min
Bit rate : 61 b/s
Count of elements : 1317
Stream size : 49.6 KiB (0%)
Title : Full
Language : Russian
Default : No
Forced : No

Text #3
ID : 7
Format : UTF-8
Codec ID : S_TEXT/UTF8
Codec ID/Info : UTF-8 Plain Text
Duration : 1 h 43 min
Bit rate : 49 b/s
Count of elements : 1387
Stream size : 38.0 KiB (0%)
Title : Full
Language : English
Default : No
Forced : No

Text #4
ID : 8
Format : UTF-8
Codec ID : S_TEXT/UTF8
Codec ID/Info : UTF-8 Plain Text
Duration : 1 h 43 min
Bit rate : 56 b/s
Count of elements : 1569
Stream size : 43.0 KiB (0%)
Title : SDH
Language : English
Default : No
Forced : No

Menu
00:00:00.000 : en:00:00:00.000
00:05:32.958 : en:00:05:32.958
00:13:26.264 : en:00:13:26.264
00:21:26.160 : en:00:21:26.160
00:26:51.860 : en:00:26:51.860
00:30:39.546 : en:00:30:39.546
00:34:15.428 : en:00:34:15.428
00:39:07.345 : en:00:39:07.345
00:43:25.186 : en:00:43:25.186
00:49:14.660 : en:00:49:14.660
00:53:16.360 : en:00:53:16.360
00:57:47.005 : en:00:57:47.005
01:01:28.268 : en:01:01:28.268
01:07:16.532 : en:01:07:16.532
01:14:46.649 : en:01:14:46.649
01:20:35.330 : en:01:20:35.330
01:28:10.368 : en:01:28:10.368
01:33:12.712 : en:01:33:12.712
01:37:56.996 : en:01:37:56.996
01:43:46.428 : en:01:43:46.428

Автор релиза:


Подпишись на меня, кликни по картинке > :

x

Не пропустите

Процесс / The Trial: The State of Russia vs Oleg Sentsov (2017) WEB-DL 1080p

СКАЧАТЬ TORRENT ФАЙЛ Год выпуска: 2017 Страна: Эстония, Польша, Чехия Жанр: Документальный Продолжительность: 01:08:08 Русские ...