Главная » Видео » Зарубежные фильмы » Пятьдесят оттенков свободы / Fifty Shades Freed (2018) BDRip 720p от ExKinoRay | Театральная версия | Лицензия

Пятьдесят оттенков свободы / Fifty Shades Freed (2018) BDRip 720p от ExKinoRay | Театральная версия | Лицензия

СКАЧАТЬ TORRENT ФАЙЛ

Информация о фильме
Название: Пятьдесят оттенков свободы
Оригинальное название: Fifty Shades Freed
Год выхода: 2018
Жанр: Триллер, драма, мелодрама
Режиссер: Джеймс Фоули
В ролях: Дакота Джонсон, Джейми Дорнан, Эрик Джонсон, Элоиза Мамфорд, Рита Ора, Люк Граймс, Виктор Расук, Макс Мартини, Дженнифер Или, Марша Гей Харден

О фильме: Кристиан и Анастейша поженились и живут в своё удовольствие, наслаждаясь обществом друг друга. Однако жизнь новоиспечённой миссис Грей находится в опасности, поскольку объявляется недруг, который собирается мстить, используя свою богатую фантазию. Призраки прошлого Кристиана вновь вернулись, а тучи над супругами сгущаются всё сильнее.

Страна: США
Студия: Universal Pictures, Moving Picture Company, The
Продолжительность: 01:45:18
Перевод: Дублированный | Лицензия

Качество: BDRip 720p
Видео: MPEG-4 AVC, 1280×534, 5000 Kbit/s, 23.976 fps
Звук:
Аудио #01: 48 kHz, DTS, 5.1, 768 Kbps | Лицензия | RUS |

Аудио #02: 48 kHz, AC3, 5.1, 448 Kbps | Лицензия | RUS |

Аудио #03: 48 kHz, AC3, 5.1, 640 Kbps | Оригинал | ENG |

Субтитры: Русские (forced, full), английские

MIGeneral
Unique ID : 177327103801335699155656046312175074574 (0x8567F539FFC32F9A8C263F4FB0D27D0E)
Complete name : C:Video111Fifty.Shades.Freed.2018.Lic.Theatrical.BDRip.720p.ExKinoRay.mkv
Format : Matroska
Format version : Version 4 / Version 2
File size : 5.04 GiB
Duration : 1 h 45 min
Overall bit rate : 6 858 kb/s
Movie name : Fifty Shades Freed 2018 from ExKinoRay
Encoded date : UTC 2018-05-27 08:39:22
Writing application : mkvmerge v7.3.0 ('Nouages') 64bit built on Oct 22 2014 18:53:34
Writing library : libebml v1.3.0 + libmatroska v1.4.1

Video
ID : 1
Format : AVC
Format/Info : Advanced Video Codec
Format profile : High@L4.1
Format settings : CABAC / 12 Ref Frames
Format settings, CABAC : Yes
Format settings, ReFrames : 12 frames
Codec ID : V_MPEG4/ISO/AVC
Duration : 1 h 45 min
Bit rate : 5 000 kb/s
Width : 1 280 pixels
Height : 534 pixels
Display aspect ratio : 2.40:1
Frame rate mode : Constant
Frame rate : 23.976 (24000/1001) FPS
Color space : YUV
Chroma subsampling : 4:2:0
Bit depth : 8 bits
Scan type : Progressive
Bits/(Pixel*Frame) : 0.305
Stream size : 3.68 GiB (73%)
Writing library : x264 core 148 r2705 3f5ed56
Encoding settings : cabac=1 / ref=12 / deblock=1:-2:-2 / analyse=0x3:0x133 / me=umh / subme=10 / psy=1 / psy_rd=1.05:0.05 / mixed_ref=1 / me_range=32 / chroma_me=1 / trellis=2 / 8x8dct=1 / cqm=0 / deadzone=21,11 / fast_pskip=0 / chroma_qp_offset=-3 / threads=12 / lookahead_threads=2 / sliced_threads=0 / nr=0 / decimate=0 / interlaced=0 / bluray_compat=0 / constrained_intra=0 / bframes=8 / b_pyramid=2 / b_adapt=2 / b_bias=0 / direct=3 / weightb=1 / open_gop=0 / weightp=2 / keyint=240 / keyint_min=23 / scenecut=40 / intra_refresh=0 / rc_lookahead=50 / rc=2pass / mbtree=0 / bitrate=5000 / ratetol=1.0 / qcomp=0.60 / qpmin=0 / qpmax=51 / qpstep=4 / cplxblur=20.0 / qblur=0.5 / vbv_maxrate=50000 / vbv_bufsize=62500 / nal_hrd=none / filler=0 / ip_ratio=1.40 / pb_ratio=1.30 / aq=3:0.80
Language : English
Default : Yes
Forced : No

Audio #1
ID : 2
Format : DTS
Format/Info : Digital Theater Systems
Codec ID : A_DTS
Duration : 1 h 45 min
Bit rate mode : Constant
Bit rate : 768 kb/s
Channel(s) : 6 channels
Channel positions : Front: L C R, Side: L R, LFE
Sampling rate : 48.0 kHz
Frame rate : 93.750 FPS (512 SPF)
Bit depth : 24 bits
Compression mode : Lossy
Stream size : 578 MiB (11%)
Title : Dub [License] Language : Russian
Default : Yes
Forced : Yes

Audio #2
ID : 3
Format : AC-3
Format/Info : Audio Coding 3
Codec ID : A_AC3
Duration : 1 h 45 min
Bit rate mode : Constant
Bit rate : 448 kb/s
Channel(s) : 6 channels
Channel positions : Front: L C R, Side: L R, LFE
Sampling rate : 48.0 kHz
Frame rate : 31.250 FPS (1536 SPF)
Bit depth : 16 bits
Compression mode : Lossy
Stream size : 337 MiB (7%)
Title : Dub [License] Language : Russian
Service kind : Complete Main
Default : No
Forced : No

Audio #3
ID : 4
Format : AC-3
Format/Info : Audio Coding 3
Codec ID : A_AC3
Duration : 1 h 45 min
Bit rate mode : Constant
Bit rate : 640 kb/s
Channel(s) : 6 channels
Channel positions : Front: L C R, Side: L R, LFE
Sampling rate : 48.0 kHz
Frame rate : 31.250 FPS (1536 SPF)
Bit depth : 16 bits
Compression mode : Lossy
Stream size : 482 MiB (9%)
Title : Original
Language : English
Service kind : Complete Main
Default : No
Forced : No

Text #1
ID : 5
Format : UTF-8
Codec ID : S_TEXT/UTF8
Codec ID/Info : UTF-8 Plain Text
Duration : 1 h 44 min
Bit rate : 1 b/s
Count of elements : 31
Stream size : 1.03 KiB (0%)
Title : Forced
Language : Russian
Default : Yes
Forced : Yes

Text #2
ID : 6
Format : UTF-8
Codec ID : S_TEXT/UTF8
Codec ID/Info : UTF-8 Plain Text
Duration : 1 h 44 min
Bit rate : 60 b/s
Count of elements : 1251
Stream size : 46.6 KiB (0%)
Title : Full
Language : Russian
Default : No
Forced : No

Text #3
ID : 7
Format : UTF-8
Codec ID : S_TEXT/UTF8
Codec ID/Info : UTF-8 Plain Text
Duration : 1 h 38 min
Bit rate : 47 b/s
Count of elements : 1118
Stream size : 34.4 KiB (0%)
Title : Full
Language : English
Default : No
Forced : No

Menu
00:00:00.000 : en:00:00:00.000
00:05:12.479 : en:00:05:12.479
00:12:02.930 : en:00:12:02.930
00:19:40.137 : en:00:19:40.137
00:24:31.428 : en:00:24:31.428
00:28:19.114 : en:00:28:19.114
00:31:54.996 : en:00:31:54.996
00:36:46.913 : en:00:36:46.913
00:41:04.754 : en:00:41:04.754
00:46:54.228 : en:00:46:54.228
00:50:33.364 : en:00:50:33.364
00:54:58.545 : en:00:54:58.545
00:58:39.808 : en:00:58:39.808
01:04:12.891 : en:01:04:12.891
01:11:03.050 : en:01:11:03.050
01:16:51.732 : en:01:16:51.732
01:23:55.906 : en:01:23:55.906
01:28:58.249 : en:01:28:58.249
01:33:16.049 : en:01:33:16.049
01:39:05.398 : en:01:39:05.398

Автор релиза:


Подпишись на меня, кликни по картинке > :

x

Не пропустите

Процесс / The Trial: The State of Russia vs Oleg Sentsov (2017) WEB-DL 1080p

СКАЧАТЬ TORRENT ФАЙЛ Год выпуска: 2017 Страна: Эстония, Польша, Чехия Жанр: Документальный Продолжительность: 01:08:08 Русские ...