Главная » Видео » Зарубежные фильмы » Пятьдесят оттенков свободы / Fifty Shades Freed (2018) UHD BDRemux 2160p от ExKinoRay | Театральная версия | Лицензия

Пятьдесят оттенков свободы / Fifty Shades Freed (2018) UHD BDRemux 2160p от ExKinoRay | Театральная версия | Лицензия

СКАЧАТЬ TORRENT ФАЙЛ

Пятьдесят оттенков свободы
Fifty Shades Freed
«Миссис Грей ждёт вас»

Информация о фильме
Название: Пятьдесят оттенков свободы
Оригинальное название: Fifty Shades Freed
Год выпуска: 2018
Жанр: Триллер, драма, мелодрама, экранизация
Выпущено: США, Universal Pictures
Режиссер: Джеймс Фоули
В ролях: Дакота Джонсон, Джейми Дорнан, Эрик Джонсон, Элоиза Мамфорд, Рита Ора, Люк Граймс, Виктор Расук, Макс Мартини, Дженнифер Или, Марша Гей Харден
Продолжительность: 01:45:18

Описание:
Никому еще счастье не давалось легко, и героям долгожданной экранизации заключительной части трилогии Э.Л.Джеймс «Пятьдесят оттенков серого» предстоит в этом убедиться. Наслаждаясь совместной жизнью, Кристиан и Анастейша искренне верят, что все их проблемы решены и благополучно забыты. Однако демоны прошлого врываются в счастливое настоящее, привнеся в него весьма опасные события. Так, жизнь новоиспеченных супругов опять окрашивается новыми мятежными оттенками…

Файл
Контейнер: MKV
Качество: Blu-Ray Remux (2160p)
Видео: HEVC, 52.1 Мбит/с, 3840×2160, 23.976 кадр/с

Аудио #1: DTS, 48.0 kHz, 6 ch, 768 kb/s, CBR (Russian) | Дублированный | Лицензия
Аудио #2: AC-3, 48.0 kHz, 6 ch, 448 kb/s, CBR (Russian) | Дублированный | Лицензия
Аудио #3: DTS X / MA / Core, / 48.0 kHz / 48.0 kHz, Object Based / 8 / 6 ch, 3 278 kb/s / 3 278 kb/s / 1 509 kb/s, VBR / VBR / CBR (English)
Аудио #4: AC-3, 48.0 kHz, 6 ch, 640 kb/s, CBR (English)
Субтитры: Russian (Forced, full) English

Автор релиза: Ivantsov

Скриншоты

MI
Общее
Уникальный идентификатор : 163670041430308179529708486847757200464 (0x7B21B410A4F5BCDD3425B1B3FC1EAC50)
Полное имя : Fifty.Shades.Freed.2018.Theatrical.Lic.BDRemux.2160p.4K.UltraHD.HEVC.HDR.IVA(RUS.ENG).ExKinoRay.mkv
Формат : Matroska
Версия формата : Version 4 / Version 2
Размер файла : 51,6 Гбайт
Продолжительность : 1 ч. 45 м.
Общий поток : 70,2 Мбит/сек
Название фильма : Пятьдесят оттенков свободы (Театральная версия) / Fifty Shades Freed (Theatrical Cut) ( 2018 ) UHD BDRemux | HDR, 4K | IVA(RUS.ENG) | ExKinoRay
Дата кодирования : UTC 2018-05-27 12:35:09
Программа кодирования : mkvmerge v23.0.0 ('The Bride Said No') 64-bit
Библиотека кодирования : libebml v1.3.6 + libmatroska v1.4.9
Обложка : Yes
Attachments : cover

Видео
Идентификатор : 1
Формат : HEVC
Формат/Информация : High Efficiency Video Coding
Коммерческое название : HDR10
Профиль формата : Main 10@L5.1@High
Идентификатор кодека : V_MPEGH/ISO/HEVC
Продолжительность : 1 ч. 45 м.
Битрейт : 65,0 Мбит/сек
Ширина : 3840 пикселей
Высота : 2160 пикселей
Соотношение сторон : 16:9
Режим частоты кадров : Постоянный
Частота кадров : 23,976 (23976/1000) кадра/сек
Частота кадров в оригинале : 23,976 (24000/1001) кадра/сек
Цветовое пространство : YUV
Субдискретизация насыщенности : 4:2:0 (Type 2)
Битовая глубина : 10 бит
Бит/(Пиксели*Кадры) : 0.327
Размер потока : 47,8 Гбайт (93%)
Заголовок : Fifty.Shades.Freed.2018.Theatrical.BDRemux.2160p.4K.UltraHD.HEVC.HDR
Язык : English
Default : Да
Forced : Нет
Цветовой диапазон : Limited
Основные цвета : BT.2020
Характеристики трансфера : PQ
Коэффициенты матрицы : BT.2020 non-constant
MasteringDisplay_Luminance : min: 0.0050 cd/m2, max: 1000 cd/m2
MaxCLL : 952 cd/m2
MaxFALL : 200 cd/m2

Аудио #1
Идентификатор : 2
Формат : DTS
Формат/Информация : Digital Theater Systems
Идентификатор кодека : A_DTS
Продолжительность : 1 ч. 45 м.
Вид битрейта : Постоянный
Битрейт : 768 Кбит/сек
Каналы : 6 каналов
Расположение каналов : Front: L C R, Side: L R, LFE
Частота : 48,0 КГц
Частота кадров : 93,750 кадра/сек (512 SPF)
Битовая глубина : 24 бит
Метод сжатия : С потерями
Размер потока : 578 Мбайт (1%)
Заголовок : | Дублированный |
Язык : Russian
Default : Да
Forced : Да

Аудио #2
Идентификатор : 3
Формат : AC-3
Формат/Информация : Audio Coding 3
Идентификатор кодека : A_AC3
Продолжительность : 1 ч. 45 м.
Вид битрейта : Постоянный
Битрейт : 448 Кбит/сек
Каналы : 6 каналов
Расположение каналов : Front: L C R, Side: L R, LFE
Частота : 48,0 КГц
Частота кадров : 31,250 кадров/сек (1536 SPF)
Битовая глубина : 16 бит
Метод сжатия : С потерями
Размер потока : 337 Мбайт (1%)
Заголовок : | Дублированный |
Язык : Russian
ServiceKind : Complete Main
Default : Нет
Forced : Нет

Аудио #3
Идентификатор : 4
Формат : DTS
Формат/Информация : Digital Theater Systems
Профиль формата : X / MA / Core
Идентификатор кодека : A_DTS
Продолжительность : 1 ч. 45 м.
Вид битрейта : Переменный / Переменный / Постоянный
Битрейт : 3278 Кбит/сек / 3278 Кбит/сек / 1509 Кбит/сек
Каналы : Object Based / 8 каналов / 6 каналов
Расположение каналов : Object Based / Front: L C R, Side: L R, Back: L R, LFE / Front: L C R, Side: L R, LFE
Частота : / 48,0 КГц / 48,0 КГц
Частота кадров : 93,750 кадра/сек (512 SPF)
Битовая глубина : / 24 бит / 24 бит
Метод сжатия : / Lossless / Lossy
Размер потока : 2,41 Гбайт (5%)
Заголовок : | Original |
Язык : English
Default : Нет
Forced : Нет

Аудио #4
Идентификатор : 5
Формат : AC-3
Формат/Информация : Audio Coding 3
Идентификатор кодека : A_AC3
Продолжительность : 1 ч. 45 м.
Вид битрейта : Постоянный
Битрейт : 640 Кбит/сек
Каналы : 6 каналов
Расположение каналов : Front: L C R, Side: L R, LFE
Частота : 48,0 КГц
Частота кадров : 31,250 кадров/сек (1536 SPF)
Битовая глубина : 16 бит
Метод сжатия : С потерями
Размер потока : 482 Мбайт (1%)
Заголовок : | Original |
Язык : English
ServiceKind : Complete Main
Default : Нет
Forced : Нет

Текст #1
Идентификатор : 6
Формат : UTF-8
Идентификатор кодека : S_TEXT/UTF8
Идентификатор кодека/Информация : UTF-8 Plain Text
Продолжительность : 1 ч. 44 м.
Битрейт : 1 бит/сек
ElementCount : 31
Размер потока : 1,03 Кбайт (0%)
Заголовок : Forced
Язык : Russian
Default : Да
Forced : Да

Текст #2
Идентификатор : 7
Формат : UTF-8
Идентификатор кодека : S_TEXT/UTF8
Идентификатор кодека/Информация : UTF-8 Plain Text
Продолжительность : 1 ч. 44 м.
Битрейт : 60 бит/сек
ElementCount : 1251
Размер потока : 46,6 Кбайт (0%)
Заголовок : Full
Язык : Russian
Default : Нет
Forced : Нет

Текст #3
Идентификатор : 8
Формат : UTF-8
Идентификатор кодека : S_TEXT/UTF8
Идентификатор кодека/Информация : UTF-8 Plain Text
Продолжительность : 1 ч. 38 м.
Битрейт : 47 бит/сек
ElementCount : 1118
Размер потока : 34,4 Кбайт (0%)
Заголовок : Full
Язык : English
Default : Нет
Forced : Нет

Меню
00:00:00.000 : en:Chapter 1
00:05:12.478 : en:Chapter 2
00:12:02.930 : en:Chapter 3
00:19:40.137 : en:Chapter 4
00:24:31.428 : en:Chapter 5
00:28:19.113 : en:Chapter 6
00:31:54.996 : en:Chapter 7
00:36:46.912 : en:Chapter 8
00:41:04.753 : en:Chapter 9
00:46:54.227 : en:Chapter 10
00:50:33.363 : en:Chapter 11
00:54:58.544 : en:Chapter 12
00:58:39.807 : en:Chapter 13
01:04:12.890 : en:Chapter 14
01:11:03.050 : en:Chapter 15
01:16:51.731 : en:Chapter 16
01:23:55.905 : en:Chapter 17
01:28:58.249 : en:Chapter 18
01:33:16.048 : en:Chapter 19
01:39:05.397 : en:Chapter 20

x

Не пропустите

Чёрный код / Code Black [03×01-06 из 16] (2018) WEBRip 1080p | IdeaFilm

СКАЧАТЬ TORRENT ФАЙЛ Информация о фильме Год выпуска: 2018 Страна: США Жанр: Триллер, драма, детектив ...