Главная » Видео » Зарубежные фильмы » Tomb Raider: Лара Крофт / Tomb Raider (2018) BDRemux 1080p | HDrezka Studio

Tomb Raider: Лара Крофт / Tomb Raider (2018) BDRemux 1080p | HDrezka Studio

СКАЧАТЬ TORRENT ФАЙЛ

Информация о фильме
Название: Tomb Raider: Лара Крофт
Оригинальное название: Tomb Raider
Год выхода: 2018
Жанр: Боевик, приключения
Режиссер: Роар Утхауг
В ролях: Алисия Викандер, Доминик Уэст, Уолтон Гоггинс, Дэниэл Ву, Кристин Скотт Томас, Дерек Джекоби, Александр Виллауме, Тамер Барджаг, Эдриан Коллинз, Кинэн Эррисон, Андриан Мазив, Милтон Шорр, Ханна Джон-Кэймен, Питер Уэйсон, Сэмюэл Мак, Скай Янг, Билли Постлтуэйт, Рекха Джон-Чериян, Антонио Аакил, Эмили Кэри, Рэй Лим

О фильме:
Лара Крофт — весьма самостоятельная дочь эксцентричного искателя приключений, который пропал, едва она стала подростком. Теперь ей двадцать один, она бесцельно проживает свою жизнь, курьером рассекая на байке по забитым улицам восточного Лондона, а ее заработка едва хватает на оплату квартиры и занятий в колледже. Решительно настроенная пробиться сама, она отказывается брать на себя руководство глобальной империей отца, столь же категорично отвергая мысль о том, что он действительно пропал. Слыша советы о том, что ей нужно смириться с этим фактом и жить дальше после семи лет бесплодных поисков, Лара уже и сама не понимает, что же заставляет ее распутывать обстоятельства его таинственной смерти.

Страна: Великобритания, США
Студия: Metro-Goldwyn-Mayer (MGM), Square Enix Inc., Warner Bros. Pictures
Продолжительность: 01:57:48
Перевод: Профессиональный многоголосый (HDrezka Studio)

Файл
Кодек: x264
Качество: BDRemux 1080p (batonchik)
Видео: AVC/H.264, 1920×1080, ~ 24010 kbps, 23,976 fps
Аудио 1: AC3, 2 ch, 192 Kbps | Русский
Аудио 2: Dolby Atmos/TrueHD, 8 ch, 3662 Kbps | Английский
Субтитры: Английские

Mediainfo:General
Complete name : Tomb Raider-Лара Крофт_Tomb Raider.2018.BDRemux.NNMClub.mkv
Format : Matroska
Format version : Version 4 / Version 2
File size : 22.5 GiB
Duration : 1 h 57 min
Overall bit rate mode : Variable
Overall bit rate : 27.3 Mb/s
Movie name : Tomb Raider-Лара Крофт_Tomb Raider.2018.BDRemux.NNMClub
Encoded date : UTC 2018-06-04 05:04:21
Writing application : mkvmerge v18.0.0 ('Apricity') 64-bit
Writing library : libebml v1.3.5 + libmatroska v1.4.8

Video
ID : 1
Format : AVC
Format/Info : Advanced Video Codec
Format profile : High@L4.1
Format settings : CABAC / 4 Ref Frames
Format settings, CABAC : Yes
Format settings, ReFrames : 4 frames
Codec ID : V_MPEG4/ISO/AVC
Duration : 1 h 57 min
Bit rate mode : Variable
Bit rate : 23.9 Mb/s
Maximum bit rate : 28.0 Mb/s
Width : 1 920 pixels
Height : 1 080 pixels
Display aspect ratio : 16:9
Frame rate mode : Constant
Frame rate : 23.976 (24000/1001) FPS
Color space : YUV
Chroma subsampling : 4:2:0
Bit depth : 8 bits
Scan type : Progressive
Bits/(Pixel*Frame) : 0.480
Stream size : 19.6 GiB (87%)
Title : Tomb Raider-Лара Крофт_Tomb Raider.2018.BDRemux.NNMClub
Language : English
Default : No
Forced : No

Audio #1
ID : 2
Format : AC-3
Format/Info : Audio Coding 3
Codec ID : A_AC3
Duration : 1 h 57 min
Bit rate mode : Constant
Bit rate : 192 kb/s
Channel(s) : 2 channels
Channel positions : Front: L R
Sampling rate : 48.0 kHz
Frame rate : 31.250 FPS (1536 SPF)
Bit depth : 16 bits
Compression mode : Lossy
Stream size : 162 MiB (1%)
Title : MVO (HDRezka studio)
Language : Russian
Service kind : Complete Main
Default : Yes
Forced : No

Audio #2
ID : 3
Format : TrueHD
Format profile : TrueHD+Atmos / TrueHD
Codec ID : A_TRUEHD
Duration : 1 h 57 min
Bit rate mode : Variable
Bit rate : 3 214 kb/s
Maximum bit rate : 5 520 kb/s
Channel(s) : Object Based / 8 channels
Channel positions : Object Based / Front: L C R, Side: L R, Back: L R, LFE
Sampling rate : / 48.0 kHz
Frame rate : 1 200.000 FPS (40 SPF)
Compression mode : Lossless
Stream size : 2.65 GiB (12%)
Language : English
Default : No
Forced : No

Text
ID : 4
Format : UTF-8
Codec ID : S_TEXT/UTF8
Codec ID/Info : UTF-8 Plain Text
Duration : 1 h 56 min
Bit rate : 29 b/s
Count of elements : 866
Stream size : 24.9 KiB (0%)
Language : English
Default : No
Forced : No

Menu
00:00:00.000 : en:Chapter 01
00:13:13.250 : en:Chapter 02
00:24:04.234 : en:Chapter 03
00:31:57.999 : en:Chapter 04
00:39:57.061 : en:Chapter 05
00:50:31.069 : en:Chapter 06
01:04:49.844 : en:Chapter 07
01:13:58.100 : en:Chapter 08
01:20:17.395 : en:Chapter 09
01:27:41.130 : en:Chapter 10
01:38:41.624 : en:Chapter 11
01:51:17.420 : en:Chapter 12Скриншоты

x

Не пропустите

Арчер / Archer [09×01-05 из 08] (2018) WEBRip | ColdFilm

СКАЧАТЬ TORRENT ФАЙЛ Информация о фильме Название: Спецагент Арчер Оригинальное название: Archer Год выпуска: 2018 ...